<?xml version="1.0" standalone="no"?>
<!DOCTYPE svg PUBLIC "-//W3C//DTD SVG 1.1//EN" "http://www.w3.org/Graphics/SVG/1.1/DTD/svg11.dtd" >
<svg xmlns="http://www.w3.org/2000/svg" xmlns:xlink="http://www.w3.org/1999/xlink" version="1.1">
<metadata></metadata>
<defs>
<font id="sofachromeregular" horiz-adv-x="2910" >
<font-face units-per-em="2048" ascent="1606" descent="-442" />
<missing-glyph horiz-adv-x="722" />
<glyph unicode="&#x28;C&#x29;" horiz-adv-x="1701" d="M109 696q0 154 58 289t159.5 236.5t235.5 160t288 58.5t289 -58.5t236.5 -160t159.5 -236.5t58 -289t-58 -288t-159.5 -234t-236.5 -158.5t-289 -58.5t-288 58.5t-235.5 158.5t-159.5 234.5t-58 287.5zM215 696q0 -131 50 -246.5t136 -201.5t202 -136.5t247 -50.5 t246.5 50.5t202.5 136.5t137.5 201.5t50.5 246.5t-50.5 247t-137.5 203t-202.5 137t-246.5 50t-247 -50t-202 -137t-136 -203t-50 -247zM541 700q0 55 12 108.5t40 95.5t72 67.5t105 25.5h305q37 0 37 -36v-52q0 -37 -37 -37h-198q-49 0 -70 -24.5t-21 -95.5v-82 q0 -78 20.5 -110t70.5 -32h200q35 0 35 -34v-54q0 -37 -35 -37h-307q-61 0 -105 26t-72 67t-40 95t-12 109z" />
<glyph unicode="&#x28;R&#x29;" horiz-adv-x="1169" d="M109 961q0 98 37.5 184t102 150.5t151.5 101.5t186 37q98 0 184 -37t150.5 -101.5t102.5 -150.5t38 -184t-38 -185.5t-102.5 -152t-150.5 -102.5t-184 -38t-185.5 38t-152 102.5t-102 151.5t-37.5 186zM197 961q0 -82 30.5 -153t82.5 -123t124 -83t152 -31t151.5 31 t123.5 83t83 123t31 153q0 80 -31 150.5t-83 122.5t-123.5 83t-151.5 31t-152 -31t-124 -83t-82.5 -123t-30.5 -150zM403 817v316q0 37 37 36h222q51 0 78.5 -30.5t27.5 -75.5q0 -37 -22.5 -64.5t-61.5 -33.5l90 -138q10 -25 10 -30q0 -16 -22 -17h-29q-39 0 -59 31l-96 150 q-16 23 -17 34v9q0 23 37 22h27q37 0 37 37q0 39 -37 39h-123v-285q0 -37 -37 -37h-25q-37 0 -37 37z" />
<glyph horiz-adv-x="0" />
<glyph unicode="&#xd;" horiz-adv-x="223" />
<glyph horiz-adv-x="722" />
<glyph unicode=" "  horiz-adv-x="722" />
<glyph unicode="&#x09;" horiz-adv-x="722" />
<glyph unicode="&#xa0;" horiz-adv-x="722" />
<glyph unicode="!" horiz-adv-x="843" d="M109 1339q0 57 59 58h510q55 0 55 -56q0 -6 -1 -11t-1 -11l-90 -678q-10 -55 -63 -55h-314q-53 0 -61 55l-92 678q-2 8 -2 20zM166 92v295q0 90 92 90h326q92 0 92 -90v-295q0 -92 -92 -92h-326q-92 0 -92 92z" />
<glyph unicode="&#x22;" horiz-adv-x="1228" d="M55 1360v74q0 74 72 73h365q72 0 71 -73v-74q0 -43 -4 -75t-14 -66l-80 -291q-10 -43 -41 -67.5t-82 -24.5h-66q-51 0 -81.5 24.5t-40.5 67.5l-80 291q-10 35 -14.5 66.5t-4.5 74.5zM666 1360v74q0 74 73 73h363q74 0 74 -73v-74q0 -43 -4.5 -75t-14.5 -66l-80 -291 q-12 -43 -42.5 -67.5t-80.5 -24.5h-67q-49 0 -81 24.5t-42 67.5l-80 291q-10 35 -14 66.5t-4 74.5z" />
<glyph unicode="#" horiz-adv-x="1099" d="M109 455v100q0 14 10 22.5t22 8.5h117l16 250h-112q-12 0 -21.5 9t-9.5 23v99q0 12 9.5 21t21.5 9h123l24 367q4 33 33 33h88q35 0 35 -35l-25 -365h277l24 367q4 33 35 33h86q16 0 24.5 -10.5t8.5 -24.5l-23 -365h89q14 0 22 -9t8 -21v-99q0 -33 -30 -32h-101l-16 -250 h92q33 0 33 -31v-100q0 -10 -9.5 -19.5t-23.5 -9.5h-105l-26 -395q-4 -31 -31 -31h-90q-14 0 -23.5 10t-9.5 25l27 391h-277l-26 -395q-4 -31 -31 -31h-88q-16 0 -25.5 10t-9.5 25l25 391h-105q-12 0 -22 9t-10 20zM412 586h278l17 250h-279z" />
<glyph unicode="$" horiz-adv-x="1536" d="M109 930q0 45 16 86t49 72.5t82 50t115 18.5h286v186q0 53 54 54h120q55 0 56 -54v-186h454q55 0 56 -55v-49q0 -55 -56 -56h-710l631 -295q102 -47 133.5 -106t31.5 -129q0 -45 -16 -86t-49 -71.5t-82 -49t-113 -18.5h-280v-187q0 -55 -56 -55h-120q-53 0 -54 55v187 h-485q-55 0 -55 53v49q0 53 55 53h733l-631 297q-104 49 -134.5 106.5t-30.5 129.5z" />
<glyph unicode="%" horiz-adv-x="2428" d="M71 1096q0 76 25 140.5t69 110.5t106.5 72.5t137.5 26.5h402q76 0 138.5 -26.5t106.5 -74t68.5 -110.5t24.5 -139q0 -74 -24.5 -137.5t-70 -110.5t-106.5 -73.5t-137 -26.5h-402q-76 0 -138 26.5t-106 73.5t-69 110.5t-25 137.5zM72 0zM352 -37q0 18 14 33l1493 1442 q20 20 35.5 26t42.5 6h82q18 0 28.5 -11t10.5 -25q0 -18 -15 -33l-1493 -1442q-20 -20 -34.5 -26.5t-40.5 -6.5h-84q-18 0 -28.5 11.5t-10.5 25.5zM450 1055q0 -104 27 -145.5t84 -41.5h76q63 0 92 41t29 146v110q0 96 -28 128t-93 32h-76q-59 0 -85 -32.5t-26 -127.5v-110z M1277 330q0 76 25 140.5t69 110.5t106.5 72.5t137.5 26.5h402q76 0 138.5 -26.5t106.5 -74t68.5 -110.5t24.5 -139q0 -74 -24.5 -137.5t-70 -110.5t-106.5 -73.5t-137 -26.5h-402q-76 0 -138 26.5t-106 73.5t-69 110.5t-25 137.5zM1656 289q0 -104 27 -145.5t84 -41.5h76 q63 0 92 41t29 146v110q0 96 -28 128t-93 32h-76q-59 0 -85 -32.5t-26 -127.5v-110z" />
<glyph unicode="&#x26;" horiz-adv-x="1607" d="M109 354q0 82 52 166t175 156l102 59l-90 101q-66 72 -87 139t-21 133q0 70 25.5 123t71.5 90t110.5 56.5t140.5 19.5h217q63 0 113.5 -18.5t85 -49.5t53 -73t18.5 -87q0 -59 -9 -103t-30.5 -78t-55.5 -61.5t-81 -54.5l-84 -47l291 -321l123 78q20 12 35.5 18t38.5 6h208 q31 0 31 -24q0 -12 -16 -23l-297 -188l270 -295q10 -10 13.5 -19.5t3.5 -17.5q0 -39 -39 -39h-342q-45 0 -70 31l-137 151l-127 -86q-82 -53 -158 -77.5t-143 -24.5q-84 0 -156 31.5t-124 83t-81.5 116t-29.5 129.5zM352 379q0 -41 17.5 -75t44 -58.5t60.5 -38.5t67 -14 q76 0 145 47l125 77l-248 277l-106 -62q-53 -29 -79 -69.5t-26 -83.5zM539 1157q0 -20 11 -39.5t40 -48.5l104 -115l82 45q14 8 28.5 18.5t26 26t17.5 40t6 61.5q0 31 -21.5 50t-72.5 19h-139q-47 0 -64.5 -14t-17.5 -43z" />
<glyph unicode="'" horiz-adv-x="618" d="M55 1360v74q0 74 72 73h365q72 0 71 -73v-74q0 -43 -4 -75t-14 -66l-80 -291q-10 -43 -41 -67.5t-82 -24.5h-66q-51 0 -81.5 24.5t-40.5 67.5l-80 291q-10 35 -14.5 66.5t-4.5 74.5z" />
<glyph unicode="(" horiz-adv-x="798" d="M260 -31v1461q0 23 16 38l138 136q20 16 45 16h203q29 0 28 -29v-57q0 -27 -28 -27h-177q-14 0 -22 -8l-74 -74q-10 -10 -10 -24v-1405q0 -16 10 -23l74 -75q6 -6 22 -7h177q29 0 28 -28v-56q0 -31 -28 -30h-203q-25 0 -45 16l-138 135q-16 20 -16 41z" />
<glyph unicode=")" horiz-adv-x="798" d="M109 -137q0 29 28 28h176q16 0 23 7l74 75q10 6 10 23v1405q0 14 -10 24l-74 74q-8 8 -23 8h-176q-29 0 -28 27v57q0 29 28 29h203q25 0 45 -16l137 -136q16 -16 17 -38v-1461q0 -20 -17 -41l-137 -135q-20 -16 -45 -16h-203q-29 0 -28 30v56z" />
<glyph unicode="*" horiz-adv-x="1095" d="M109 944v133q0 37 24.5 53.5t59.5 16.5l223 -31l-97 207q-8 14 -8 31q0 23 13.5 41t37.5 26l127 41q12 4 23 4q23 0 43 -15t25 -42l41 -225l163 157q20 20 50 21q35 0 57 -29l80 -106q14 -20 14 -47q0 -16 -9 -33t-28 -27l-203 -108l203 -111q18 -10 27.5 -26.5 t9.5 -32.5q0 -25 -14 -47l-82 -107q-23 -29 -55 -29q-29 0 -50 21l-163 158l-41 -226q-4 -29 -23.5 -44t-46.5 -15q-8 0 -21 4l-131 43q-23 8 -36 25.5t-13 40.5q0 18 8 32l99 207l-226 -31q-35 0 -58 16.5t-23 53.5z" />
<glyph unicode="+" horiz-adv-x="1529" d="M109 672v57q0 55 55 55h516v516q0 55 55 56h60q53 0 53 -56v-516h518q55 0 55 -55v-57q0 -55 -55 -56h-518v-518q0 -55 -53 -55h-60q-55 0 -55 55v518h-516q-55 0 -55 56z" />
<glyph unicode="," horiz-adv-x="700" d="M109 -102v489q0 90 92 90h325q92 0 92 -90v-57q0 -41 -8 -70t-30 -70l-154 -292q-49 -90 -141 -91h-84q-92 0 -92 91z" />
<glyph unicode="-" horiz-adv-x="692" d="M53 623v131q0 55 56 55h471q55 0 55 -55v-131q0 -55 -55 -56h-471q-55 0 -56 56z" />
<glyph unicode="." horiz-adv-x="727" d="M109 92v295q0 90 92 90h325q92 0 92 -90v-295q0 -92 -92 -92h-325q-92 0 -92 92z" />
<glyph unicode="/" horiz-adv-x="1308" d="M0 -41q0 16 14 37l1084 1442q16 20 28.5 26t38.5 6h97q20 0 33.5 -8t13.5 -24t-15 -37l-1085 -1442q-14 -20 -27.5 -26.5t-40.5 -6.5h-96q-18 0 -31.5 8.5t-13.5 24.5z" />
<glyph unicode="0" horiz-adv-x="2297" d="M74 698q0 152 48 280t136 221t213 145.5t277 52.5h802q154 0 278 -53.5t213 -146.5t137 -221t48 -278q0 -147 -49 -275t-138 -221t-213 -147.5t-276 -54.5h-802q-150 0 -274 53t-213 147.5t-138 222.5t-49 275zM827 614q0 -207 54.5 -289.5t171.5 -82.5h151 q63 0 108.5 19.5t75 62.5t44 114.5t14.5 175.5v224q0 94 -13.5 155.5t-42 98t-74.5 51t-112 14.5h-151q-59 0 -102.5 -15.5t-71 -52t-40 -98t-12.5 -153.5v-224z" />
<glyph unicode="1" horiz-adv-x="1138" d="M61 1212v131q0 53 56 54h610q154 0 237 -62.5t83 -177.5v-1130q0 -27 -37 -27h-699q-39 0 -39 27v1130h-155q-55 0 -56 55z" />
<glyph unicode="2" horiz-adv-x="2220" d="M109 55v271q0 156 34.5 254t133 153t271.5 74.5t449 19.5h211q82 0 126 44t44 124q0 82 -44 122t-126 40h-989q-55 0 -55 55v131q0 53 55 54h1405q119 0 207 -36t145.5 -94.5t86 -132t28.5 -151.5q0 -76 -27.5 -147.5t-84 -127t-145.5 -89t-212 -33.5h-487 q-80 0 -129.5 -11.5t-76 -37t-35.5 -65.5t-9 -95v-135h1171q55 0 55 -56v-131q0 -55 -55 -55h-1892q-55 0 -55 55z" />
<glyph unicode="3" horiz-adv-x="2117" d="M74 55v131q0 55 53 56h891q117 0 168 52t51 150q0 100 -51 148.5t-168 48.5h-479q-55 0 -56 53v133q0 53 56 54h514q102 0 140 38.5t38 100.5q0 61 -38 99t-140 38h-910q-53 0 -53 55v131q0 53 53 54h1436q205 0 306.5 -93.5t101.5 -259.5q0 -63 -17.5 -108t-42 -76 t-52.5 -49t-48 -29q33 -10 71.5 -39.5t71.5 -75.5t54.5 -108.5t21.5 -138.5q0 -78 -28.5 -152.5t-90 -134t-156 -96.5t-225.5 -37h-1419q-53 0 -53 55z" />
<glyph unicode="4" horiz-adv-x="2330" d="M51 358v95q0 47 41 77l1067 816q66 51 144 51h745q53 0 53 -54v-817h150q55 0 55 -55v-113q0 -55 -55 -55h-150v-248q0 -55 -53 -55h-666q-53 0 -53 55v248h-1223q-55 0 -55 55zM551 526h778v607z" />
<glyph unicode="5" horiz-adv-x="2193" d="M109 55v131q0 55 55 56h1083q45 0 79 15t54.5 42t30.5 60.5t10 68.5t-10 68.5t-30.5 60.5t-54.5 43t-79 16h-1079q-55 0 -55 56v671q0 53 55 54h1798q55 0 55 -54v-131q0 -55 -55 -55h-1169v-326h866q113 0 196 -34.5t136 -93t79.5 -133t26.5 -154.5q0 -78 -26.5 -153 t-79.5 -133t-136 -94t-196 -36h-1499q-55 0 -55 55z" />
<glyph unicode="6" horiz-adv-x="2248" d="M74 545v379q0 123 45 212t120.5 147t171 86t197.5 28h1430q55 0 55 -54v-131q0 -55 -55 -55h-1024q-111 0 -161 -39t-50 -117v-546q0 -98 59.5 -155.5t151.5 -57.5h256q92 0 151.5 57t59.5 156q0 98 -58.5 152.5t-144.5 54.5h-274q-55 0 -56 55v110q0 53 56 54h677 q131 0 226.5 -39t157 -101.5t90 -143.5t28.5 -165q0 -82 -27.5 -159.5t-85 -138t-146.5 -97.5t-210 -37h-1104q-104 0 -201.5 30.5t-171 97.5t-118.5 169t-45 248z" />
<glyph unicode="7" horiz-adv-x="1906" d="M27 1212v131q0 53 55 54h1730q53 0 54 -54v-65q0 -49 -27 -90l-731 -1149q-12 -23 -29.5 -31t-50.5 -8h-643q-49 0 -49 37q0 12 10 33l670 1087h-934q-55 0 -55 55z" />
<glyph unicode="8" horiz-adv-x="2189" d="M63 428q0 115 63.5 212t160.5 142q-78 47 -116 121t-38 154q0 63 24.5 124.5t75 108.5t125 77t174.5 30h1119q100 0 175 -30t125 -77t74.5 -108.5t24.5 -124.5q0 -80 -38 -154t-116 -121q96 -45 160 -142t64 -212q0 -80 -32 -156.5t-95.5 -137t-157.5 -97.5t-219 -37 h-1049q-125 0 -219 37t-157.5 97.5t-95.5 137t-32 156.5zM700 444q0 -39 15.5 -74.5t46.5 -64.5t76 -46t106 -17h297q59 0 104.5 17t76 46t46 65t15.5 74q0 39 -15.5 76t-46 65.5t-76 46t-104.5 17.5h-297q-61 0 -106 -17.5t-76 -46t-46.5 -65.5t-15.5 -76zM733 993 q0 -63 48 -114.5t147 -51.5h329q98 0 145.5 51.5t47.5 114.5q0 31 -12.5 59.5t-36 52t-59 38t-85.5 14.5h-329q-49 0 -86 -14.5t-60.5 -38t-36 -52t-12.5 -59.5z" />
<glyph unicode="9" horiz-adv-x="2224" d="M53 991q0 76 26.5 149.5t83 130t142.5 91.5t205 35h1104q104 0 201.5 -31t171 -96.5t118.5 -169t45 -248.5v-377q0 -123 -45 -213t-120.5 -148.5t-172 -86t-196.5 -27.5h-1356q-55 0 -55 55v131q0 55 55 56h932q217 0 217 153v543q0 102 -59.5 160.5t-153.5 58.5h-242 q-53 0 -90 -16.5t-59.5 -43t-32.5 -60t-10 -68.5t10 -68t32.5 -58.5t59.5 -42t90 -16.5h254q53 0 54 -55v-102q0 -55 -54 -56h-665q-127 0 -220.5 36t-152.5 95.5t-88 135t-29 153.5z" />
<glyph unicode=":" horiz-adv-x="778" d="M139 92v295q0 90 90 90h328q90 0 90 -90v-295q0 -92 -90 -92h-328q-90 0 -90 92zM139 770v295q0 92 90 92h328q90 0 90 -92v-295q0 -92 -90 -92h-328q-90 0 -90 92z" />
<glyph unicode=";" horiz-adv-x="772" d="M141 -102v489q0 90 92 90h326q92 0 92 -90v-57q0 -41 -8 -70t-31 -70l-153 -292q-49 -90 -142 -91h-84q-92 0 -92 91zM141 770v295q0 92 92 92h326q92 0 92 -92v-295q0 -92 -92 -92h-326q-92 0 -92 92z" />
<glyph unicode="&#x3c;" horiz-adv-x="1255" d="M109 653v86q0 57 45 84l878 506q20 10 31 10q27 0 45 -28l29 -51q8 -16 8 -31q0 -29 -29 -45l-840 -484l840 -483q29 -14 29 -41q0 -18 -8 -35l-29 -49q-20 -33 -45 -33q-12 0 -31 13l-876 503q-47 27 -47 78z" />
<glyph unicode="=" horiz-adv-x="1529" d="M109 416v59q0 53 55 53h1202q55 0 55 -53v-59q0 -55 -55 -56h-1202q-55 0 -55 56zM109 928v57q0 55 55 55h1202q55 0 55 -55v-57q0 -55 -55 -56h-1202q-55 0 -55 56z" />
<glyph unicode="&#x3e;" horiz-adv-x="1255" d="M109 176q0 25 30 41l840 483l-840 484q-31 18 -30 45q0 10 10 31l28 51q18 29 46 28q10 0 30 -10l879 -506q43 -25 43 -84v-86q0 -53 -45 -78l-877 -503q-18 -12 -30 -13q-25 0 -46 33l-28 49q-10 20 -10 35z" />
<glyph unicode="?" horiz-adv-x="1759" d="M35 1212v131q0 53 55 54h1167q117 0 201 -31t139.5 -82t82 -116.5t26.5 -133.5t-26.5 -132t-82 -115.5t-140.5 -82t-202 -30.5h-260q-63 0 -106 -1t-73 -6t-45 -14.5t-23 -25.5q-18 -41 -56 -41h-278q-55 0 -56 55v51q0 20 6.5 52t30 63t70.5 52.5t131 21.5h383 q72 0 102.5 43t30.5 94q0 53 -30.5 96t-102.5 43h-889q-55 0 -55 55zM293 92v295q0 90 90 90h328q90 0 90 -90v-295q0 -92 -90 -92h-328q-90 0 -90 92z" />
<glyph unicode="@" horiz-adv-x="1773" d="M74 477v375q0 145 45 248.5t118.5 169t171 96.5t201.5 31h668q111 0 189.5 -39t130 -101.5t76 -143.5t24.5 -167q0 -84 -24.5 -162.5t-76 -140t-130 -99.5t-189.5 -38h-465q-53 0 -89 20.5t-57.5 52t-30.5 73.5t-9 85t8 83t27.5 71t53.5 49t85 18h176q94 0 131 -49 t37 -112v-156h69q45 0 76 22.5t50.5 58.5t27.5 82t8 93q0 49 -8 96t-27.5 83t-50 58.5t-76.5 22.5h-546q-94 0 -155.5 -48t-61.5 -171v-541q0 -156 217 -155h913q55 0 55 -54v-131q0 -55 -55 -55h-973q-102 0 -197.5 27.5t-171 86t-120.5 148.5t-45 213zM805 741 q0 -43 20.5 -71.5t51.5 -28.5h98v111q0 41 -20.5 61.5t-53.5 20.5h-24q-31 0 -51.5 -26t-20.5 -67z" />
<glyph unicode="A" d="M6 35q0 6 3 15t14 18l1284 1290q39 39 86 39h135q51 0 90 -39l1266 -1286q10 -10 13 -20.5t3 -18.5q0 -33 -47 -33h-858q-66 0 -107 41l-792 821l-627 -620h930q55 0 55 -56v-131q0 -55 -55 -55h-1354q-39 0 -39 35z" />
<glyph unicode="B" horiz-adv-x="2455" d="M74 55v1288q0 53 53 54h1778q205 0 306 -93.5t101 -259.5q0 -63 -17.5 -108t-42 -76t-53 -49t-49.5 -29q33 -10 72 -39.5t72 -75.5t54.5 -108.5t21.5 -138.5q0 -78 -29 -152.5t-90.5 -134t-155.5 -96.5t-225 -37h-1743q-53 0 -53 55zM862 242h481q117 0 168.5 52 t51.5 150q0 100 -51.5 148.5t-168.5 48.5h-299q-53 0 -53 53v133q0 53 53 54h334q102 0 140 38.5t38 100.5q0 61 -37.5 99t-140.5 38h-516v-915z" />
<glyph unicode="C" horiz-adv-x="2260" d="M74 698q0 150 48 278t136 222t212 146.5t275 52.5h1395q55 0 55 -54v-131q0 -55 -55 -55h-915q-68 0 -114 -14.5t-74.5 -51t-41 -98t-12.5 -155.5v-224q0 -104 14.5 -175.5t44 -114.5t74.5 -62.5t109 -19.5h923q53 0 54 -56v-131q0 -55 -54 -55h-1403q-145 0 -268 52 t-213 145.5t-140 221.5t-50 279z" />
<glyph unicode="D" horiz-adv-x="2555" d="M74 55v1288q0 53 53 54h1647q154 0 277.5 -53.5t211.5 -146.5t136 -221t48 -278q0 -152 -50 -279.5t-140 -221t-214 -145.5t-269 -52h-1647q-53 0 -53 55zM885 242h413q61 0 106.5 19.5t75 63.5t43 114.5t13.5 174.5v224q0 94 -12.5 155.5t-41 98t-73.5 51t-111 14.5 h-413v-915z" />
<glyph unicode="E" horiz-adv-x="2316" d="M74 698q0 150 48 278t136 222t212 146.5t275 52.5h1432q55 0 55 -54v-131q0 -55 -55 -55h-952q-68 0 -114 -14.5t-74.5 -51t-41 -98t-12.5 -155.5v-224q0 -104 14.5 -175.5t44 -114.5t74.5 -62.5t109 -19.5h958q55 0 55 -56v-131q0 -55 -55 -55h-1438q-145 0 -268 52 t-213 145.5t-140 221.5t-50 279zM1128 694v133q0 53 56 54h979q53 0 53 -37v-166q0 -37 -53 -37h-979q-55 0 -56 53z" />
<glyph unicode="F" horiz-adv-x="2263" d="M92 55v764q0 127 37 232.5t110.5 182.5t186.5 120t266 43h1487q53 0 53 -54v-131q0 -55 -53 -55h-952q-135 0 -188.5 -70.5t-53.5 -230.5v-801q0 -55 -55 -55h-785q-53 0 -53 55zM1130 694v133q0 53 56 54h981q55 0 55 -37v-166q0 -37 -55 -37h-981q-55 0 -56 53z" />
<glyph unicode="G" horiz-adv-x="2400" d="M74 698q0 150 48 278t136 222t212 146.5t275 52.5h1428q55 0 55 -54v-131q0 -55 -55 -55h-948q-68 0 -114 -14.5t-74.5 -51t-41 -98t-12.5 -155.5v-224q0 -104 14.5 -175.5t44 -114.5t74.5 -62.5t109 -19.5h362v626q0 55 53 56h586q55 0 55 -56v-813q0 -55 -55 -55h-1481 q-145 0 -268 52t-213 145.5t-140 221.5t-50 279z" />
<glyph unicode="H" horiz-adv-x="2457" d="M109 55v1288q0 53 55 54h704q53 0 54 -54v-462h614v462q0 53 55 54h705q53 0 53 -54v-1288q0 -55 -53 -55h-705q-55 0 -55 55v586h-614v-586q0 -55 -54 -55h-704q-55 0 -55 55z" />
<glyph unicode="I" horiz-adv-x="1050" d="M119 55v1288q0 53 53 54h707q53 0 53 -54v-1288q0 -55 -53 -55h-707q-53 0 -53 55z" />
<glyph unicode="J" horiz-adv-x="1939" d="M23 55v131q0 55 53 56h637q135 0 188 70.5t53 230.5v800q0 53 56 54h784q53 0 53 -54v-765q0 -127 -36.5 -232.5t-110.5 -182.5t-186.5 -120t-266.5 -43h-1171q-53 0 -53 55z" />
<glyph unicode="K" horiz-adv-x="2666" d="M109 55v1288q0 53 53 54h704q55 0 56 -54v-1288q0 -55 -56 -55h-704q-53 0 -53 55zM1020 762v59q0 35 8 51.5t33 30.5l819 440q41 23 84 38.5t92 15.5h414q23 0 33 -10.5t10 -24.5q0 -23 -25 -35l-813 -436l951 -799q29 -23 28 -51q0 -16 -14 -28.5t-45 -12.5h-699 q-43 0 -73.5 13.5t-63.5 41.5l-700 609q-23 18 -31 39.5t-8 58.5z" />
<glyph unicode="L" horiz-adv-x="2101" d="M92 578v765q0 53 53 54h785q55 0 55 -54v-800q0 -160 53.5 -230.5t188.5 -70.5h805q53 0 53 -56v-131q0 -55 -53 -55h-1340q-154 0 -266.5 43t-186 120t-110.5 182.5t-37 232.5z" />
<glyph unicode="M" horiz-adv-x="2906" d="M100 55v1288q0 53 56 54h176q68 0 131 -54l960 -868l1026 868q33 29 70 41.5t76 12.5h147q55 0 56 -54v-1288q0 -55 -56 -55h-678q-55 0 -55 55v518l-577 -518q-31 -29 -64 -42t-63 -13h-119q-31 0 -67 13.5t-70 41.5l-648 518v-518q0 -55 -55 -55h-190q-55 0 -56 55z " />
<glyph unicode="N" horiz-adv-x="2625" d="M100 55v1288q0 53 56 54h252q33 0 59.5 -1t51 -5.5t50 -12.5t58.5 -20l1523 -588v573q0 53 56 54h264q55 0 55 -54v-1288q0 -55 -55 -55h-141q-61 0 -107.5 8t-114.5 33l-1632 610v-596q0 -55 -55 -55h-264q-55 0 -56 55z" />
<glyph unicode="O" horiz-adv-x="2498" d="M74 698q0 152 48 280t136 221t213 145.5t277 52.5h1003q154 0 277.5 -53.5t213 -146.5t137.5 -221t48 -278q0 -147 -49 -275t-138.5 -221t-213 -147.5t-275.5 -54.5h-1003q-150 0 -274 53t-213 147.5t-138 222.5t-49 275zM864 614q0 -207 54.5 -289.5t171.5 -82.5h278 q63 0 108.5 19.5t75 62.5t44 114.5t14.5 175.5v224q0 94 -12.5 155.5t-41 98t-74.5 51t-114 14.5h-278q-61 0 -103.5 -15.5t-70 -52t-40 -98t-12.5 -153.5v-224z" />
<glyph unicode="P" horiz-adv-x="2390" d="M74 55v1288q0 53 53 54h1751q100 0 188 -31t153 -89t101.5 -144t36.5 -195q0 -111 -41 -193.5t-112.5 -138t-169 -84t-209.5 -28.5h-764q-53 0 -53 55v131q0 55 53 55h262q49 0 91 11.5t73 36t49 64.5t18 99q0 109 -67.5 160t-163.5 51h-438v-1102q0 -55 -56 -55h-702 q-53 0 -53 55z" />
<glyph unicode="Q" horiz-adv-x="2482" d="M74 698q0 152 48 280t136 221t213 145.5t277 52.5h985q154 0 277.5 -53.5t212.5 -146.5t137 -221t48 -278q0 -147 -49 -275t-138 -221t-213 -147.5t-275 -54.5l114 -178q10 -16 11 -31q0 -12 -8.5 -22.5t-30.5 -10.5h-471q-53 0 -86 54l-121 188h-393q-150 0 -274 53 t-213 147.5t-138 222.5t-49 275zM864 614q0 -207 54.5 -289.5t171.5 -82.5h260q63 0 108 19.5t75 62.5t44 114.5t14 175.5v224q0 94 -12 155.5t-41 98t-75 51t-113 14.5h-260q-61 0 -103.5 -15.5t-70 -52t-40 -98t-12.5 -153.5v-224z" />
<glyph unicode="R" horiz-adv-x="2586" d="M109 55v1288q0 53 55 54h1790q92 0 172 -25.5t138 -73t91 -113t33 -145.5q0 -86 -32 -154.5t-86 -117.5t-126.5 -80t-154.5 -43l565 -579q14 -12 14 -33q0 -12 -9 -22.5t-28 -10.5h-700q-82 0 -135 55l-617 633q-16 16 -25.5 31.5t-9.5 44.5v63q0 53 54 54h280 q98 0 146.5 36.5t48.5 102.5q0 137 -195 137h-456v-1102q0 -55 -56 -55h-702q-55 0 -55 55z" />
<glyph unicode="S" horiz-adv-x="2125" d="M59 1053q0 68 25 130t75 110t124.5 76t173.5 28h1507q55 0 55 -54v-131q0 -55 -55 -55h-1110l963 -452q80 -37 128 -77t75.5 -84t36.5 -94.5t9 -105.5q0 -68 -24.5 -130t-74.5 -110.5t-124 -76t-172 -27.5h-1546q-53 0 -53 55v131q0 55 53 56h1149l-965 452 q-78 37 -127 77t-76.5 84t-37 93t-9.5 105z" />
<glyph unicode="T" horiz-adv-x="2121" d="M18 1180v190q0 27 39 27h2009q39 0 39 -27v-190q0 -23 -39 -23h-600v-1130q0 -27 -36 -27h-736q-39 0 -39 27v1130h-598q-39 0 -39 23z" />
<glyph unicode="U" horiz-adv-x="2433" d="M92 643v700q0 53 53 54h766q53 0 54 -54v-700q0 -188 79.5 -294.5t253.5 -106.5h353q176 0 259 106.5t83 294.5v700q0 53 55 54h246q55 0 55 -54v-700q0 -135 -42 -252t-128 -204t-218 -137t-310 -50h-860q-188 0 -321.5 45t-217.5 129t-122 203t-38 266z" />
<glyph unicode="V" d="M6 1364q0 33 47 33h858q66 0 107 -41l794 -821l826 821q23 20 47.5 30.5t58.5 10.5h117q39 0 39 -35q0 -16 -16 -33l-1285 -1288q-37 -41 -86 -41h-135q-53 0 -90 41l-1263 1286q-18 16 -19 37z" />
<glyph unicode="W" horiz-adv-x="4007" d="M6 1362q0 35 45 35h787q35 0 60.5 -9.5t45.5 -31.5l617 -770l620 770q16 23 43 32t62 9h129q35 0 61.5 -9.5t42.5 -31.5l614 -821l644 821q18 23 44.5 32t61.5 9h74q43 0 43 -33q0 -16 -13 -35l-974 -1288q-16 -23 -39 -32t-47 -9h-117q-29 0 -52.5 9t-39.5 32l-645 870 l-693 -870q-16 -23 -37.5 -32t-46.5 -9h-118q-57 0 -93 41l-1062 1286q-16 16 -17 35z" />
<glyph unicode="X" horiz-adv-x="2652" d="M43 33q0 20 23 39l829 606l-719 641q-20 18 -20 41q0 16 13 26.5t40 10.5h854q37 0 65.5 -11.5t53.5 -33.5l381 -342l479 346q29 20 59.5 30.5t71.5 10.5h149q43 0 43 -33q0 -20 -22 -37l-625 -457l887 -792q23 -18 23 -39q0 -39 -54 -39h-856q-68 0 -119 45l-550 492 l-682 -496q-29 -20 -60 -30.5t-71 -10.5h-150q-43 0 -43 33z" />
<glyph unicode="Y" horiz-adv-x="2332" d="M6 1364q0 16 12.5 24.5t28.5 8.5h825q55 0 93 -41l544 -598l568 600q23 23 41 31t49 8h119q20 0 29 -9.5t9 -21.5q0 -16 -10 -27l-741 -784v-500q0 -55 -55 -55h-705q-53 0 -53 55v488l-735 784q-18 18 -19 37z" />
<glyph unicode="Z" horiz-adv-x="2217" d="M72 55v131q0 35 8 52.5t37 46.5l1003 872h-952q-55 0 -55 55v131q0 53 55 54h1913q53 0 53 -54v-131q0 -35 -8 -53t-37 -47l-930 -870h946q55 0 56 -56v-131q0 -55 -56 -55h-1980q-53 0 -53 55z" />
<glyph unicode="[" horiz-adv-x="782" d="M244 -170v1737q0 53 53 53h348q29 0 29 -29v-57q0 -27 -29 -27h-260q-23 0 -23 -26v-1567q0 -23 27 -23h256q29 0 29 -30v-54q0 -31 -29 -30h-348q-53 0 -53 53z" />
<glyph unicode="\" horiz-adv-x="1308" d="M0 1438q0 16 13.5 24t31.5 8h96q27 0 40.5 -6t27.5 -26l1085 -1442q14 -20 15 -37q0 -16 -13.5 -24.5t-33.5 -8.5h-97q-27 0 -39 6.5t-28 26.5l-1084 1442q-14 20 -14 37z" />
<glyph unicode="]" horiz-adv-x="778" d="M109 -139q0 31 28 30h256q27 0 27 23v1567q0 27 -23 26h-260q-29 0 -28 27v57q0 29 28 29h348q53 0 54 -53v-1737q0 -53 -54 -53h-348q-29 0 -28 30v54z" />
<glyph unicode="^" horiz-adv-x="1095" d="M109 852q0 14 14 43l256 442q33 59 115 60h106q82 0 115 -60l258 -442q4 -12 8 -22.5t4 -20.5q0 -39 -41 -59l-67 -41q-25 -12 -46 -13q-35 0 -59 39l-225 389l-223 -389q-25 -39 -62 -39q-18 0 -43 13l-69 41q-41 23 -41 59z" />
<glyph unicode="_" horiz-adv-x="1259" d="M0 -162q0 25 39 25h1182q39 0 39 -25v-117q0 -29 -39 -28h-1182q-39 0 -39 28v117z" />
<glyph unicode="`" horiz-adv-x="925" d="M109 1765v109q0 41 34 41q14 0 30.5 -2t33.5 -12l571 -271q37 -16 37 -45v-92q0 -41 -37 -41q-10 0 -20 2t-27 8l-592 264q-31 6 -30 39z" />
<glyph unicode="a" d="M6 0zM6 35q0 6 3 15t14 18l1284 1290q39 39 86 39h135q51 0 90 -39l1266 -1286q10 -10 13 -20.5t3 -18.5q0 -33 -47 -33h-858q-66 0 -107 41l-792 821l-627 -620h930q55 0 55 -56v-131q0 -55 -55 -55h-1354q-39 0 -39 35z" />
<glyph unicode="b" horiz-adv-x="2455" d="M74 0zM74 55v1288q0 53 53 54h1778q205 0 306 -93.5t101 -259.5q0 -63 -17.5 -108t-42 -76t-53 -49t-49.5 -29q33 -10 72 -39.5t72 -75.5t54.5 -108.5t21.5 -138.5q0 -78 -29 -152.5t-90.5 -134t-155.5 -96.5t-225 -37h-1743q-53 0 -53 55zM862 242h481q117 0 168.5 52 t51.5 150q0 100 -51.5 148.5t-168.5 48.5h-299q-53 0 -53 53v133q0 53 53 54h334q102 0 140 38.5t38 100.5q0 61 -37.5 99t-140.5 38h-516v-915z" />
<glyph unicode="c" horiz-adv-x="2260" d="M74 0zM74 698q0 150 48 278t136 222t212 146.5t275 52.5h1395q55 0 55 -54v-131q0 -55 -55 -55h-915q-68 0 -114 -14.5t-74.5 -51t-41 -98t-12.5 -155.5v-224q0 -104 14.5 -175.5t44 -114.5t74.5 -62.5t109 -19.5h923q53 0 54 -56v-131q0 -55 -54 -55h-1403 q-145 0 -268 52t-213 145.5t-140 221.5t-50 279z" />
<glyph unicode="d" horiz-adv-x="2555" d="M74 0zM74 55v1288q0 53 53 54h1647q154 0 277.5 -53.5t211.5 -146.5t136 -221t48 -278q0 -152 -50 -279.5t-140 -221t-214 -145.5t-269 -52h-1647q-53 0 -53 55zM885 242h413q61 0 106.5 19.5t75 63.5t43 114.5t13.5 174.5v224q0 94 -12.5 155.5t-41 98t-73.5 51 t-111 14.5h-413v-915z" />
<glyph unicode="e" horiz-adv-x="2316" d="M74 0zM74 698q0 150 48 278t136 222t212 146.5t275 52.5h1432q55 0 55 -54v-131q0 -55 -55 -55h-952q-68 0 -114 -14.5t-74.5 -51t-41 -98t-12.5 -155.5v-224q0 -104 14.5 -175.5t44 -114.5t74.5 -62.5t109 -19.5h958q55 0 55 -56v-131q0 -55 -55 -55h-1438 q-145 0 -268 52t-213 145.5t-140 221.5t-50 279zM1128 694v133q0 53 56 54h979q53 0 53 -37v-166q0 -37 -53 -37h-979q-55 0 -56 53z" />
<glyph unicode="f" horiz-adv-x="2263" d="M92 0zM92 55v764q0 127 37 232.5t110.5 182.5t186.5 120t266 43h1487q53 0 53 -54v-131q0 -55 -53 -55h-952q-135 0 -188.5 -70.5t-53.5 -230.5v-801q0 -55 -55 -55h-785q-53 0 -53 55zM1130 694v133q0 53 56 54h981q55 0 55 -37v-166q0 -37 -55 -37h-981q-55 0 -56 53z " />
<glyph unicode="g" horiz-adv-x="2400" d="M74 0zM74 698q0 150 48 278t136 222t212 146.5t275 52.5h1428q55 0 55 -54v-131q0 -55 -55 -55h-948q-68 0 -114 -14.5t-74.5 -51t-41 -98t-12.5 -155.5v-224q0 -104 14.5 -175.5t44 -114.5t74.5 -62.5t109 -19.5h362v626q0 55 53 56h586q55 0 55 -56v-813q0 -55 -55 -55 h-1481q-145 0 -268 52t-213 145.5t-140 221.5t-50 279z" />
<glyph unicode="h" horiz-adv-x="2457" d="M109 0zM109 55v1288q0 53 55 54h704q53 0 54 -54v-462h614v462q0 53 55 54h705q53 0 53 -54v-1288q0 -55 -53 -55h-705q-55 0 -55 55v586h-614v-586q0 -55 -54 -55h-704q-55 0 -55 55z" />
<glyph unicode="i" horiz-adv-x="1050" d="M119 0zM119 55v1288q0 53 53 54h707q53 0 53 -54v-1288q0 -55 -53 -55h-707q-53 0 -53 55z" />
<glyph unicode="j" horiz-adv-x="1939" d="M23 0zM23 55v131q0 55 53 56h637q135 0 188 70.5t53 230.5v800q0 53 56 54h784q53 0 53 -54v-765q0 -127 -36.5 -232.5t-110.5 -182.5t-186.5 -120t-266.5 -43h-1171q-53 0 -53 55z" />
<glyph unicode="k" horiz-adv-x="2666" d="M109 0zM109 55v1288q0 53 53 54h704q55 0 56 -54v-1288q0 -55 -56 -55h-704q-53 0 -53 55zM1020 762v59q0 35 8 51.5t33 30.5l819 440q41 23 84 38.5t92 15.5h414q23 0 33 -10.5t10 -24.5q0 -23 -25 -35l-813 -436l951 -799q29 -23 28 -51q0 -16 -14 -28.5t-45 -12.5 h-699q-43 0 -73.5 13.5t-63.5 41.5l-700 609q-23 18 -31 39.5t-8 58.5z" />
<glyph unicode="l" horiz-adv-x="2101" d="M92 0zM92 578v765q0 53 53 54h785q55 0 55 -54v-800q0 -160 53.5 -230.5t188.5 -70.5h805q53 0 53 -56v-131q0 -55 -53 -55h-1340q-154 0 -266.5 43t-186 120t-110.5 182.5t-37 232.5z" />
<glyph unicode="m" horiz-adv-x="2906" d="M100 0zM100 55v1288q0 53 56 54h176q68 0 131 -54l960 -868l1026 868q33 29 70 41.5t76 12.5h147q55 0 56 -54v-1288q0 -55 -56 -55h-678q-55 0 -55 55v518l-577 -518q-31 -29 -64 -42t-63 -13h-119q-31 0 -67 13.5t-70 41.5l-648 518v-518q0 -55 -55 -55h-190 q-55 0 -56 55z" />
<glyph unicode="n" horiz-adv-x="2625" d="M100 0zM100 55v1288q0 53 56 54h252q33 0 59.5 -1t51 -5.5t50 -12.5t58.5 -20l1523 -588v573q0 53 56 54h264q55 0 55 -54v-1288q0 -55 -55 -55h-141q-61 0 -107.5 8t-114.5 33l-1632 610v-596q0 -55 -55 -55h-264q-55 0 -56 55z" />
<glyph unicode="o" horiz-adv-x="2498" d="M74 0zM74 698q0 152 48 280t136 221t213 145.5t277 52.5h1003q154 0 277.5 -53.5t213 -146.5t137.5 -221t48 -278q0 -147 -49 -275t-138.5 -221t-213 -147.5t-275.5 -54.5h-1003q-150 0 -274 53t-213 147.5t-138 222.5t-49 275zM864 614q0 -207 54.5 -289.5t171.5 -82.5 h278q63 0 108.5 19.5t75 62.5t44 114.5t14.5 175.5v224q0 94 -12.5 155.5t-41 98t-74.5 51t-114 14.5h-278q-61 0 -103.5 -15.5t-70 -52t-40 -98t-12.5 -153.5v-224z" />
<glyph unicode="p" horiz-adv-x="2390" d="M74 0zM74 55v1288q0 53 53 54h1751q100 0 188 -31t153 -89t101.5 -144t36.5 -195q0 -111 -41 -193.5t-112.5 -138t-169 -84t-209.5 -28.5h-764q-53 0 -53 55v131q0 55 53 55h262q49 0 91 11.5t73 36t49 64.5t18 99q0 109 -67.5 160t-163.5 51h-438v-1102q0 -55 -56 -55 h-702q-53 0 -53 55z" />
<glyph unicode="q" horiz-adv-x="2482" d="M74 0zM74 698q0 152 48 280t136 221t213 145.5t277 52.5h985q154 0 277.5 -53.5t212.5 -146.5t137 -221t48 -278q0 -147 -49 -275t-138 -221t-213 -147.5t-275 -54.5l114 -178q10 -16 11 -31q0 -12 -8.5 -22.5t-30.5 -10.5h-471q-53 0 -86 54l-121 188h-393 q-150 0 -274 53t-213 147.5t-138 222.5t-49 275zM864 614q0 -207 54.5 -289.5t171.5 -82.5h260q63 0 108 19.5t75 62.5t44 114.5t14 175.5v224q0 94 -12 155.5t-41 98t-75 51t-113 14.5h-260q-61 0 -103.5 -15.5t-70 -52t-40 -98t-12.5 -153.5v-224z" />
<glyph unicode="r" horiz-adv-x="2586" d="M109 0zM109 55v1288q0 53 55 54h1790q92 0 172 -25.5t138 -73t91 -113t33 -145.5q0 -86 -32 -154.5t-86 -117.5t-126.5 -80t-154.5 -43l565 -579q14 -12 14 -33q0 -12 -9 -22.5t-28 -10.5h-700q-82 0 -135 55l-617 633q-16 16 -25.5 31.5t-9.5 44.5v63q0 53 54 54h280 q98 0 146.5 36.5t48.5 102.5q0 137 -195 137h-456v-1102q0 -55 -56 -55h-702q-55 0 -55 55z" />
<glyph unicode="s" horiz-adv-x="2125" d="M59 0zM59 1053q0 68 25 130t75 110t124.5 76t173.5 28h1507q55 0 55 -54v-131q0 -55 -55 -55h-1110l963 -452q80 -37 128 -77t75.5 -84t36.5 -94.5t9 -105.5q0 -68 -24.5 -130t-74.5 -110.5t-124 -76t-172 -27.5h-1546q-53 0 -53 55v131q0 55 53 56h1149l-965 452 q-78 37 -127 77t-76.5 84t-37 93t-9.5 105z" />
<glyph unicode="t" horiz-adv-x="2121" d="M18 0zM18 1180v190q0 27 39 27h2009q39 0 39 -27v-190q0 -23 -39 -23h-600v-1130q0 -27 -36 -27h-736q-39 0 -39 27v1130h-598q-39 0 -39 23z" />
<glyph unicode="u" horiz-adv-x="2433" d="M92 0zM92 643v700q0 53 53 54h766q53 0 54 -54v-700q0 -188 79.5 -294.5t253.5 -106.5h353q176 0 259 106.5t83 294.5v700q0 53 55 54h246q55 0 55 -54v-700q0 -135 -42 -252t-128 -204t-218 -137t-310 -50h-860q-188 0 -321.5 45t-217.5 129t-122 203t-38 266z" />
<glyph unicode="v" d="M6 0zM6 1364q0 33 47 33h858q66 0 107 -41l794 -821l826 821q23 20 47.5 30.5t58.5 10.5h117q39 0 39 -35q0 -16 -16 -33l-1285 -1288q-37 -41 -86 -41h-135q-53 0 -90 41l-1263 1286q-18 16 -19 37z" />
<glyph unicode="w" horiz-adv-x="4007" d="M6 0zM6 1362q0 35 45 35h787q35 0 60.5 -9.5t45.5 -31.5l617 -770l620 770q16 23 43 32t62 9h129q35 0 61.5 -9.5t42.5 -31.5l614 -821l644 821q18 23 44.5 32t61.5 9h74q43 0 43 -33q0 -16 -13 -35l-974 -1288q-16 -23 -39 -32t-47 -9h-117q-29 0 -52.5 9t-39.5 32 l-645 870l-693 -870q-16 -23 -37.5 -32t-46.5 -9h-118q-57 0 -93 41l-1062 1286q-16 16 -17 35z" />
<glyph unicode="x" horiz-adv-x="2652" d="M43 0zM43 33q0 20 23 39l829 606l-719 641q-20 18 -20 41q0 16 13 26.5t40 10.5h854q37 0 65.5 -11.5t53.5 -33.5l381 -342l479 346q29 20 59.5 30.5t71.5 10.5h149q43 0 43 -33q0 -20 -22 -37l-625 -457l887 -792q23 -18 23 -39q0 -39 -54 -39h-856q-68 0 -119 45 l-550 492l-682 -496q-29 -20 -60 -30.5t-71 -10.5h-150q-43 0 -43 33z" />
<glyph unicode="y" horiz-adv-x="2332" d="M6 0zM6 1364q0 16 12.5 24.5t28.5 8.5h825q55 0 93 -41l544 -598l568 600q23 23 41 31t49 8h119q20 0 29 -9.5t9 -21.5q0 -16 -10 -27l-741 -784v-500q0 -55 -55 -55h-705q-53 0 -53 55v488l-735 784q-18 18 -19 37z" />
<glyph unicode="z" horiz-adv-x="2217" d="M72 0zM72 55v131q0 35 8 52.5t37 46.5l1003 872h-952q-55 0 -55 55v131q0 53 55 54h1913q53 0 53 -54v-131q0 -35 -8 -53t-37 -47l-930 -870h946q55 0 56 -56v-131q0 -55 -56 -55h-1980q-53 0 -53 55z" />
<glyph unicode="{" horiz-adv-x="825" d="M215 715v47q0 31 27 31h63l35 30v611q0 25 12 34l140 136q16 16 43 16h151q29 0 29 -29v-57q0 -27 -29 -27h-127q-14 0 -20 -10l-76 -74q-6 -10 -6 -18v-578q0 -18 -15 -32l-55 -56l55 -55q14 -14 15 -35v-657q0 -10 6 -17l76 -75q6 -8 20 -9h127q29 0 29 -28v-56 q0 -31 -29 -30h-151q-27 0 -43 16l-140 135q-12 12 -12 35v692l-35 31h-63q-27 0 -27 29z" />
<glyph unicode="|" horiz-adv-x="577" d="M219 -141v1679q0 41 41 41h57q41 0 41 -41v-1679q0 -41 -41 -41h-57q-41 0 -41 41z" />
<glyph unicode="}" horiz-adv-x="784" d="M109 -137q0 29 30 28h125q14 0 23 9l73 75q8 6 9 17v657q0 20 14 35l55 55l-55 56q-14 14 -14 32v578q0 10 -9 18l-73 74q-10 10 -23 10h-125q-31 0 -30 27v57q0 29 30 29h152q27 0 43 -16l139 -136q12 -12 12 -34v-611l35 -30h62q29 0 28 -31v-47q0 -29 -28 -29h-62 l-35 -31v-692q0 -20 -12 -35l-139 -135q-16 -16 -43 -16h-152q-31 0 -30 30v56z" />
<glyph unicode="~" horiz-adv-x="1069" d="M109 598v100q0 20 18 27l207 82q18 6 43 6q6 0 12 -1t14 -1l263 -66q8 -2 26 -2q14 0 21 2l194 78q12 6 33 6q20 0 21 -28v-101q0 -23 -19 -24l-207 -82q-16 -8 -41 -8q-8 0 -14 1t-14 3l-263 63q-16 4 -26 4q-8 0 -21 -4l-194 -75q-10 -8 -33 -9q-20 0 -20 29z" />
<glyph unicode="&#xa1;" horiz-adv-x="843" d="M111 0zM111 56q0 6 1 11t1 11l90 678q10 55 63 55h314q53 0 61 -55l92 -678q2 -8 2 -20q0 -57 -59 -58h-510q-55 0 -55 56zM168 1010v295q0 92 92 92h326q92 0 92 -92v-295q0 -90 -92 -90h-326q-92 0 -92 90z" />
<glyph unicode="&#xa2;" horiz-adv-x="1288" d="M76 698q0 98 31.5 182.5t90 145.5t140.5 96t180 35h96v186q0 53 54 54h123q53 0 53 -54v-186h315q53 0 53 -55v-49q0 -55 -53 -56h-385q-43 0 -73.5 -9t-50 -31.5t-28 -63.5t-8.5 -102v-148q0 -137 37 -190.5t123 -53.5h387q55 0 56 -55v-49q0 -53 -56 -53h-317v-187 q0 -55 -53 -55h-123q-53 0 -54 55v187h-96q-96 0 -177 33.5t-140.5 94t-92 144.5t-32.5 184z" />
<glyph unicode="&#xa5;" horiz-adv-x="1722" d="M78 1364q0 16 10 24.5t21 8.5h606q39 0 67 -41l316 -473l334 475q16 23 30.5 31t36.5 8h105q16 0 22 -9.5t6 -21.5q0 -6 -2 -14.5t-6 -12.5l-383 -551h303q53 0 53 -55v-57q0 -55 -53 -55h-389v-144h389q53 0 53 -53v-59q0 -55 -53 -56h-389v-254q0 -55 -41 -55h-516 q-39 0 -39 55v254h-375q-55 0 -55 56v59q0 53 55 53h375v144h-375q-55 0 -55 55v57q0 55 55 55h281l-373 539q-14 20 -14 37z" />
<glyph unicode="&#xa6;" horiz-adv-x="577" d="M219 -141v649q0 41 41 41h57q41 0 41 -41v-649q0 -41 -41 -41h-57q-41 0 -41 41zM219 891v647q0 41 41 41h57q41 0 41 -41v-647q0 -43 -41 -43h-57q-41 0 -41 43z" />
<glyph unicode="&#xa8;" horiz-adv-x="997" d="M109 1559v268q0 37 41 37h200q43 0 43 -37v-268q0 -39 -43 -39h-200q-41 0 -41 39zM606 1559v268q0 37 39 37h201q43 0 43 -37v-268q0 -39 -43 -39h-201q-39 0 -39 39z" />
<glyph unicode="&#xaa;" horiz-adv-x="1710" d="M59 565q0 12 9 19l706 710q20 20 47 21h74q29 0 49 -21l696 -708q10 -10 11 -21q0 -18 -27 -18h-473q-37 0 -57 24l-437 451l-346 -342h514q29 0 29 -31v-71q0 -31 -29 -31h-745q-20 0 -21 18z" />
<glyph unicode="&#xab;" horiz-adv-x="1155" d="M53 647v78q0 59 43 84l324 186q16 10 31 11q27 0 43 -29l30 -51q4 -10 6 -17.5t2 -13.5q0 -31 -28 -45l-283 -164l283 -164q29 -16 28 -45q0 -6 -2 -13t-6 -18l-30 -51q-16 -29 -43 -28q-14 0 -31 10l-324 186q-43 25 -43 84zM618 647v78q0 59 44 84l323 186q16 10 31 11 q27 0 45 -29l29 -51q8 -16 8 -31q0 -31 -29 -45l-283 -164l283 -164q29 -16 29 -45q0 -14 -8 -31l-29 -51q-18 -29 -45 -28q-14 0 -31 10l-323 186q-43 25 -44 84z" />
<glyph unicode="&#xad;" horiz-adv-x="692" d="M53 623v131q0 55 56 55h471q55 0 55 -55v-131q0 -55 -55 -56h-471q-55 0 -56 56z" />
<glyph unicode="&#xaf;" horiz-adv-x="970" d="M109 1599v115q0 39 41 39h671q39 0 39 -39v-115q0 -37 -39 -36h-671q-41 0 -41 36z" />
<glyph unicode="&#xb0;" horiz-adv-x="813" d="M109 838v454q0 104 88 105h419q88 0 89 -105v-454q0 -106 -89 -107h-419q-88 0 -88 107zM266 870h281v390h-281v-390z" />
<glyph unicode="&#xb1;" horiz-adv-x="1529" d="M109 0zM109 -143q0 55 55 55h1202q55 0 55 -55v-57q0 -55 -55 -56h-1202q-55 0 -55 56v57zM109 672v57q0 55 55 55h516v516q0 55 55 56h60q53 0 53 -56v-516h518q55 0 55 -55v-57q0 -55 -55 -56h-518v-518q0 -55 -53 -55h-60q-55 0 -55 55v518h-516q-55 0 -55 56z" />
<glyph unicode="&#xb2;" horiz-adv-x="1163" d="M82 748zM82 774v135q0 78 17.5 127t66.5 77t135 37t225 9h105q41 0 63.5 22.5t22.5 63.5q0 80 -86 80h-494q-29 0 -28 29v65q0 27 28 27h703q59 0 103 -17.5t72.5 -47t43 -66.5t14.5 -76q0 -37 -13 -72.5t-43 -63.5t-74 -45.5t-105 -17.5h-244q-80 0 -102.5 -24.5 t-22.5 -79.5v-68h586q27 0 26 -26v-68q0 -27 -26 -26h-946q-27 0 -27 26z" />
<glyph unicode="&#xb3;" horiz-adv-x="1112" d="M63 748zM63 774v68q0 27 29 26h445q109 0 108 103q0 96 -108 96h-242q-27 0 -27 27v65q0 29 27 29h258q53 0 71.5 19.5t18.5 50.5t-18.5 49t-71.5 18h-455q-27 0 -26 29v65q0 27 26 27h719q102 0 152.5 -47t50.5 -129q0 -33 -8 -55.5t-20.5 -38t-27 -23.5t-24.5 -14 q33 -10 71 -57.5t38 -122.5q0 -39 -14.5 -77t-45.5 -68t-78 -48t-112 -18h-707q-29 0 -29 26z" />
<glyph unicode="&#xb4;" horiz-adv-x="923" d="M109 1493v92q0 29 36 45l570 271q18 10 33.5 12t29.5 2q35 0 35 -41v-109q0 -33 -31 -39l-592 -264q-20 -10 -47 -10q-35 0 -34 41z" />
<glyph unicode="&#xb7;" horiz-adv-x="727" d="M109 528v297q0 90 92 90h325q92 0 92 -90v-297q0 -90 -92 -90h-325q-92 0 -92 90z" />
<glyph unicode="&#xb8;" horiz-adv-x="468" d="M109 0h249v-14v-49l-26 -228q-4 -39 -39 -39h-117q-35 0 -41 39l-24 228q-2 14 -2 26v23v14z" />
<glyph unicode="&#xb9;" horiz-adv-x="624" d="M59 748zM59 1354v65q0 27 27 27h305q78 0 119 -32t41 -89v-565q0 -12 -21 -12h-348q-20 0 -20 12v565h-76q-27 0 -27 29z" />
<glyph unicode="&#xba;" horiz-adv-x="1484" d="M94 932q0 84 26.5 154.5t76 120.5t118 79t152.5 29h551q84 0 152.5 -29t117.5 -80t76 -121.5t27 -152.5t-27 -151.5t-76 -122t-117.5 -82t-152.5 -29.5h-551q-84 0 -152.5 29.5t-118 81t-76 122t-26.5 152.5zM530 885q0 -115 30 -160t93 -45h156q68 0 99.5 44t31.5 161 v123q0 102 -29.5 139t-101.5 37h-156q-66 0 -94.5 -37t-28.5 -139v-123z" />
<glyph unicode="&#xbb;" horiz-adv-x="1155" d="M53 477q0 29 29 45l283 164l-283 164q-29 14 -29 45q0 6 2 13t6 18l31 51q16 29 43 29q14 0 31 -11l323 -186q43 -25 43 -84v-78q0 -59 -43 -84l-323 -186q-16 -10 -31 -10q-27 0 -43 28l-31 51q-4 10 -6 17.5t-2 13.5zM618 477q0 29 29 45l283 164l-283 164 q-29 14 -29 45q0 6 2.5 13t6.5 18l30 51q16 29 43 29q14 0 31 -11l324 -186q43 -25 43 -84v-78q0 -59 -43 -84l-324 -186q-16 -10 -31 -10q-27 0 -43 28l-30 51q-4 10 -6.5 17.5t-2.5 13.5z" />
<glyph unicode="&#xbc;" horiz-adv-x="2115" d="M72 0zM72 -37q0 18 14 33l1493 1442q20 20 35.5 26t42.5 6h82q18 0 28.5 -11t10.5 -25q0 -18 -15 -33l-1493 -1442q-20 -20 -34.5 -26.5t-40.5 -6.5h-84q-18 0 -28.5 11.5t-10.5 25.5zM204 1354v65q0 27 27 27h305q78 0 119 -32t41 -89v-565q0 -12 -21 -12h-348 q-20 0 -20 12v565h-76q-27 0 -27 29zM915 160v49q0 25 21 37l532 409q31 25 72 25h373q27 0 26 -27v-409h76q27 0 27 -27v-57q0 -27 -27 -27h-76v-125q0 -27 -26 -26h-332q-27 0 -27 26v125h-612q-27 0 -27 27zM1165 244h389v303z" />
<glyph unicode="&#xbd;" horiz-adv-x="2164" d="M72 0zM72 -37q0 18 14 33l1493 1442q20 20 35.5 26t42.5 6h82q18 0 28.5 -11t10.5 -25q0 -18 -15 -33l-1493 -1442q-20 -20 -34.5 -26.5t-40.5 -6.5h-84q-18 0 -28.5 11.5t-10.5 25.5zM223 1354v65q0 27 27 27h305q78 0 119 -32t41 -89v-565q0 -12 -21 -12h-348 q-20 0 -20 12v565h-76q-27 0 -27 29zM1092 8v135q0 78 17.5 127t66.5 77t135 37t225 9h105q41 0 63.5 22.5t22.5 63.5q0 80 -86 80h-494q-29 0 -28 29v65q0 27 28 27h703q59 0 103 -17.5t72.5 -47t43 -66.5t14.5 -76q0 -37 -13 -72.5t-43 -63.5t-74 -45.5t-105 -17.5h-244 q-80 0 -102.5 -24.5t-22.5 -79.5v-68h586q27 0 26 -26v-68q0 -27 -26 -26h-946q-27 0 -27 26z" />
<glyph unicode="&#xbe;" horiz-adv-x="2322" d="M71 774v68q0 27 29 26h445q109 0 108 103q0 96 -108 96h-242q-27 0 -27 27v65q0 29 27 29h258q53 0 71.5 19.5t18.5 50.5t-18.5 49t-71.5 18h-455q-27 0 -26 29v65q0 27 26 27h719q102 0 152.5 -47t50.5 -129q0 -33 -8 -55.5t-20.5 -38t-27 -23.5t-24.5 -14 q33 -10 71 -57.5t38 -122.5q0 -39 -14.5 -77t-45.5 -68t-78 -48t-112 -18h-707q-29 0 -29 26zM72 0zM334 -37q0 18 14 33l1493 1442q20 20 35.5 26t42.5 6h82q18 0 28.5 -11t10.5 -25q0 -18 -15 -33l-1493 -1442q-20 -20 -34.5 -26.5t-40.5 -6.5h-84q-18 0 -28.5 11.5 t-10.5 25.5zM1122 160v49q0 25 21 37l532 409q31 25 72 25h373q27 0 26 -27v-409h76q27 0 27 -27v-57q0 -27 -27 -27h-76v-125q0 -27 -26 -26h-332q-27 0 -27 26v125h-612q-27 0 -27 27zM1372 244h389v303z" />
<glyph unicode="&#xbf;" horiz-adv-x="1759" d="M53 0zM53 363q0 68 26.5 132t82 115.5t140.5 82t202 30.5h260q63 0 106 1t73 6t45 14.5t23 25.5q18 41 56 41h278q55 0 56 -55v-51q0 -20 -6.5 -52t-30 -63t-70.5 -52.5t-131 -21.5h-383q-72 0 -102.5 -43t-30.5 -94q0 -53 30.5 -96t102.5 -43h889q55 0 55 -55v-131 q0 -53 -55 -54h-1167q-117 0 -201 31t-139.5 82t-82 116.5t-26.5 133.5zM958 1010v295q0 92 90 92h328q90 0 90 -92v-295q0 -90 -90 -90h-328q-90 0 -90 90z" />
<glyph unicode="&#xc0;" d="M6 0zM6 35q0 6 3 15t14 18l1284 1290q39 39 86 39h135q51 0 90 -39l1266 -1286q10 -10 13 -20.5t3 -18.5q0 -33 -47 -33h-858q-66 0 -107 41l-792 821l-627 -620h930q55 0 55 -56v-131q0 -55 -55 -55h-1354q-39 0 -39 35zM1047 1765v109q0 41 34 41q14 0 30.5 -2 t33.5 -12l571 -271q37 -16 37 -45v-92q0 -41 -37 -41q-10 0 -20 2t-27 8l-592 264q-31 6 -30 39z" />
<glyph unicode="&#xc1;" d="M6 0zM6 35q0 6 3 15t14 18l1284 1290q39 39 86 39h135q51 0 90 -39l1266 -1286q10 -10 13 -20.5t3 -18.5q0 -33 -47 -33h-858q-66 0 -107 41l-792 821l-627 -620h930q55 0 55 -56v-131q0 -55 -55 -55h-1354q-39 0 -39 35zM1156 1493v92q0 29 36 45l570 271q18 10 33.5 12 t29.5 2q35 0 35 -41v-109q0 -33 -31 -39l-592 -264q-20 -10 -47 -10q-35 0 -34 41z" />
<glyph unicode="&#xc2;" d="M6 0zM6 35q0 6 3 15t14 18l1284 1290q39 39 86 39h135q51 0 90 -39l1266 -1286q10 -10 13 -20.5t3 -18.5q0 -33 -47 -33h-858q-66 0 -107 41l-792 821l-627 -620h930q55 0 55 -56v-131q0 -55 -55 -55h-1354q-39 0 -39 35zM1004 1511v119q0 25 24 43l393 223q16 8 33 9 q16 0 33 -9l393 -223q23 -16 23 -43v-119q0 -43 -31 -43q-12 0 -26.5 5.5t-28.5 11.5l-363 201l-362 -201q-16 -6 -28.5 -11.5t-27.5 -5.5q-33 0 -32 43z" />
<glyph unicode="&#xc3;" d="M6 0zM6 35q0 6 3 15t14 18l1284 1290q39 39 86 39h135q51 0 90 -39l1266 -1286q10 -10 13 -20.5t3 -18.5q0 -33 -47 -33h-858q-66 0 -107 41l-792 821l-627 -620h930q55 0 55 -56v-131q0 -55 -55 -55h-1354q-39 0 -39 35zM979 1554v113q0 41 32 51l201 97q31 10 53 10 q20 0 31 -4l317 -90q8 -2 14.5 -2h10.5q6 0 12 1t13 1l202 90q16 10 35 10q31 0 31 -27v-116q0 -37 -33 -50l-201 -94q-14 -8 -27.5 -10t-23.5 -2q-23 0 -33 2l-317 94q-10 2 -25 2q-12 0 -24 -6l-201 -90q-10 -4 -19.5 -7t-17.5 -3q-31 0 -30 30z" />
<glyph unicode="&#xc4;" d="M6 0zM6 35q0 6 3 15t14 18l1284 1290q39 39 86 39h135q51 0 90 -39l1266 -1286q10 -10 13 -20.5t3 -18.5q0 -33 -47 -33h-858q-66 0 -107 41l-792 821l-627 -620h930q55 0 55 -56v-131q0 -55 -55 -55h-1354q-39 0 -39 35zM1065 1559v268q0 37 41 37h200q43 0 43 -37v-268 q0 -39 -43 -39h-200q-41 0 -41 39zM1562 1559v268q0 37 39 37h201q43 0 43 -37v-268q0 -39 -43 -39h-201q-39 0 -39 39z" />
<glyph unicode="&#xc5;" d="M6 0zM6 35q0 6 3 15t14 18l1284 1290q39 39 86 39h135q51 0 90 -39l1266 -1286q10 -10 13 -20.5t3 -18.5q0 -33 -47 -33h-858q-66 0 -107 41l-792 821l-627 -620h930q55 0 55 -56v-131q0 -55 -55 -55h-1354q-39 0 -39 35zM1174 1530v387q0 98 79 98h404q78 0 78 -98v-387 q0 -98 -78 -98h-404q-80 0 -79 98zM1315 1569q0 -12 10 -13h256q12 0 12 17v301q0 16 -12 16h-256q-10 0 -10 -14v-307z" />
<glyph unicode="&#xc6;" horiz-adv-x="3819" d="M6 35q0 6 3 15t14 18l1284 1290q39 39 86 39h2287q55 0 56 -54v-131q0 -55 -56 -55h-1175v-807q0 -53 27.5 -80.5t93.5 -27.5h1060q55 0 56 -56v-131q0 -55 -56 -55h-1716q-152 0 -209 77t-57 214v866h-256l-909 -915h929q55 0 56 -56v-131q0 -55 -56 -55h-1423 q-39 0 -39 35zM2650 694v133q0 53 55 54h961q53 0 53 -37v-166q0 -37 -53 -37h-961q-55 0 -55 53z" />
<glyph unicode="&#xc7;" horiz-adv-x="2260" d="M74 0zM74 698q0 150 48 278t136 222t212 146.5t275 52.5h1395q55 0 55 -54v-131q0 -55 -55 -55h-915q-68 0 -114 -14.5t-74.5 -51t-41 -98t-12.5 -155.5v-224q0 -104 14.5 -175.5t44 -114.5t74.5 -62.5t109 -19.5h923q53 0 54 -56v-131q0 -55 -54 -55h-1403 q-145 0 -268 52t-213 145.5t-140 221.5t-50 279zM1059 -104q0 31 36 30h213q37 0 37 -30v-23v-23.5t-2 -25.5l-24 -227q-4 -39 -39 -39h-154q-35 0 -41 39l-24 227q-2 12 -2 25.5v23.5v23z" />
<glyph unicode="&#xc8;" horiz-adv-x="2316" d="M74 0zM74 698q0 150 48 278t136 222t212 146.5t275 52.5h1432q55 0 55 -54v-131q0 -55 -55 -55h-952q-68 0 -114 -14.5t-74.5 -51t-41 -98t-12.5 -155.5v-224q0 -104 14.5 -175.5t44 -114.5t74.5 -62.5t109 -19.5h958q55 0 55 -56v-131q0 -55 -55 -55h-1438 q-145 0 -268 52t-213 145.5t-140 221.5t-50 279zM930 1765v109q0 41 34 41q14 0 30.5 -2t33.5 -12l571 -271q37 -16 37 -45v-92q0 -41 -37 -41q-10 0 -20 2t-27 8l-592 264q-31 6 -30 39zM1128 694v133q0 53 56 54h979q53 0 53 -37v-166q0 -37 -53 -37h-979q-55 0 -56 53z " />
<glyph unicode="&#xc9;" horiz-adv-x="2316" d="M74 0zM74 698q0 150 48 278t136 222t212 146.5t275 52.5h1432q55 0 55 -54v-131q0 -55 -55 -55h-952q-68 0 -114 -14.5t-74.5 -51t-41 -98t-12.5 -155.5v-224q0 -104 14.5 -175.5t44 -114.5t74.5 -62.5t109 -19.5h958q55 0 55 -56v-131q0 -55 -55 -55h-1438 q-145 0 -268 52t-213 145.5t-140 221.5t-50 279zM986 1493v92q0 29 36 45l570 271q18 10 33.5 12t29.5 2q35 0 35 -41v-109q0 -33 -31 -39l-592 -264q-20 -10 -47 -10q-35 0 -34 41zM1128 694v133q0 53 56 54h979q53 0 53 -37v-166q0 -37 -53 -37h-979q-55 0 -56 53z" />
<glyph unicode="&#xca;" horiz-adv-x="2316" d="M74 0zM74 698q0 150 48 278t136 222t212 146.5t275 52.5h1432q55 0 55 -54v-131q0 -55 -55 -55h-952q-68 0 -114 -14.5t-74.5 -51t-41 -98t-12.5 -155.5v-224q0 -104 14.5 -175.5t44 -114.5t74.5 -62.5t109 -19.5h958q55 0 55 -56v-131q0 -55 -55 -55h-1438 q-145 0 -268 52t-213 145.5t-140 221.5t-50 279zM803 1511v119q0 25 24 43l393 223q16 8 33 9q16 0 33 -9l393 -223q23 -16 23 -43v-119q0 -43 -31 -43q-12 0 -26.5 5.5t-28.5 11.5l-363 201l-362 -201q-16 -6 -28.5 -11.5t-27.5 -5.5q-33 0 -32 43zM1128 694v133 q0 53 56 54h979q53 0 53 -37v-166q0 -37 -53 -37h-979q-55 0 -56 53z" />
<glyph unicode="&#xcb;" horiz-adv-x="2316" d="M74 0zM74 698q0 150 48 278t136 222t212 146.5t275 52.5h1432q55 0 55 -54v-131q0 -55 -55 -55h-952q-68 0 -114 -14.5t-74.5 -51t-41 -98t-12.5 -155.5v-224q0 -104 14.5 -175.5t44 -114.5t74.5 -62.5t109 -19.5h958q55 0 55 -56v-131q0 -55 -55 -55h-1438 q-145 0 -268 52t-213 145.5t-140 221.5t-50 279zM893 1559v268q0 37 41 37h200q43 0 43 -37v-268q0 -39 -43 -39h-200q-41 0 -41 39zM1128 694v133q0 53 56 54h979q53 0 53 -37v-166q0 -37 -53 -37h-979q-55 0 -56 53zM1390 1559v268q0 37 39 37h201q43 0 43 -37v-268 q0 -39 -43 -39h-201q-39 0 -39 39z" />
<glyph unicode="&#xcc;" horiz-adv-x="1050" d="M117 0zM117 1765v109q0 41 34 41q14 0 30.5 -2t33.5 -12l571 -271q37 -16 37 -45v-92q0 -41 -37 -41q-10 0 -20 2t-27 8l-592 264q-31 6 -30 39zM119 55v1288q0 53 53 54h707q53 0 53 -54v-1288q0 -55 -53 -55h-707q-53 0 -53 55z" />
<glyph unicode="&#xcd;" horiz-adv-x="1050" d="M119 0zM119 55v1288q0 53 53 54h707q53 0 53 -54v-1288q0 -55 -53 -55h-707q-53 0 -53 55zM228 1493v92q0 29 36 45l570 271q18 10 33.5 12t29.5 2q35 0 35 -41v-109q0 -33 -31 -39l-592 -264q-20 -10 -47 -10q-35 0 -34 41z" />
<glyph unicode="&#xce;" horiz-adv-x="1050" d="M78 0zM78 1511v119q0 25 24 43l393 223q16 8 33 9q16 0 33 -9l393 -223q23 -16 23 -43v-119q0 -43 -31 -43q-12 0 -26.5 5.5t-28.5 11.5l-363 201l-362 -201q-16 -6 -28.5 -11.5t-27.5 -5.5q-33 0 -32 43zM119 55v1288q0 53 53 54h707q53 0 53 -54v-1288q0 -55 -53 -55 h-707q-53 0 -53 55z" />
<glyph unicode="&#xcf;" horiz-adv-x="1050" d="M119 0zM119 55v1288q0 53 53 54h707q53 0 53 -54v-1288q0 -55 -53 -55h-707q-53 0 -53 55zM134 1559v268q0 37 41 37h200q43 0 43 -37v-268q0 -39 -43 -39h-200q-41 0 -41 39zM631 1559v268q0 37 39 37h201q43 0 43 -37v-268q0 -39 -43 -39h-201q-39 0 -39 39z" />
<glyph unicode="&#xd0;" horiz-adv-x="2660" d="M0 694v133q0 53 55 54h121v462q0 53 55 54h1647q152 0 275.5 -53.5t212 -146.5t136.5 -221t48 -278q0 -152 -50.5 -279.5t-140.5 -221t-213 -145.5t-268 -52h-1647q-55 0 -55 55v586h-121q-55 0 -55 53zM989 242h414q61 0 106 19.5t75 63.5t43 114.5t13 174.5v224 q0 94 -12 155.5t-40.5 98t-74 51t-110.5 14.5h-414v-276h389q55 0 56 -37v-166q0 -37 -56 -37h-389v-399z" />
<glyph unicode="&#xd1;" horiz-adv-x="2625" d="M100 0zM100 55v1288q0 53 56 54h252q33 0 59.5 -1t51 -5.5t50 -12.5t58.5 -20l1523 -588v573q0 53 56 54h264q55 0 55 -54v-1288q0 -55 -55 -55h-141q-61 0 -107.5 8t-114.5 33l-1632 610v-596q0 -55 -55 -55h-264q-55 0 -56 55zM910 1554v113q0 41 32 51l201 97 q31 10 53 10q20 0 31 -4l317 -90q8 -2 14.5 -2h10.5q6 0 12 1t13 1l202 90q16 10 35 10q31 0 31 -27v-116q0 -37 -33 -50l-201 -94q-14 -8 -27.5 -10t-23.5 -2q-23 0 -33 2l-317 94q-10 2 -25 2q-12 0 -24 -6l-201 -90q-10 -4 -19.5 -7t-17.5 -3q-31 0 -30 30z" />
<glyph unicode="&#xd2;" horiz-adv-x="2498" d="M74 0zM74 698q0 152 48 280t136 221t213 145.5t277 52.5h1003q154 0 277.5 -53.5t213 -146.5t137.5 -221t48 -278q0 -147 -49 -275t-138.5 -221t-213 -147.5t-275.5 -54.5h-1003q-150 0 -274 53t-213 147.5t-138 222.5t-49 275zM840 1765v109q0 41 34 41q14 0 30.5 -2 t33.5 -12l571 -271q37 -16 37 -45v-92q0 -41 -37 -41q-10 0 -20 2t-27 8l-592 264q-31 6 -30 39zM864 614q0 -207 54.5 -289.5t171.5 -82.5h278q63 0 108.5 19.5t75 62.5t44 114.5t14.5 175.5v224q0 94 -12.5 155.5t-41 98t-74.5 51t-114 14.5h-278q-61 0 -103.5 -15.5 t-70 -52t-40 -98t-12.5 -153.5v-224z" />
<glyph unicode="&#xd3;" horiz-adv-x="2498" d="M74 0zM74 698q0 152 48 280t136 221t213 145.5t277 52.5h1003q154 0 277.5 -53.5t213 -146.5t137.5 -221t48 -278q0 -147 -49 -275t-138.5 -221t-213 -147.5t-275.5 -54.5h-1003q-150 0 -274 53t-213 147.5t-138 222.5t-49 275zM864 614q0 -207 54.5 -289.5t171.5 -82.5 h278q63 0 108.5 19.5t75 62.5t44 114.5t14.5 175.5v224q0 94 -12.5 155.5t-41 98t-74.5 51t-114 14.5h-278q-61 0 -103.5 -15.5t-70 -52t-40 -98t-12.5 -153.5v-224zM953 1493v92q0 29 36 45l570 271q18 10 33.5 12t29.5 2q35 0 35 -41v-109q0 -33 -31 -39l-592 -264 q-20 -10 -47 -10q-35 0 -34 41z" />
<glyph unicode="&#xd4;" horiz-adv-x="2498" d="M74 0zM74 698q0 152 48 280t136 221t213 145.5t277 52.5h1003q154 0 277.5 -53.5t213 -146.5t137.5 -221t48 -278q0 -147 -49 -275t-138.5 -221t-213 -147.5t-275.5 -54.5h-1003q-150 0 -274 53t-213 147.5t-138 222.5t-49 275zM801 1511v119q0 25 24 43l393 223 q16 8 33 9q16 0 33 -9l393 -223q23 -16 23 -43v-119q0 -43 -31 -43q-12 0 -26.5 5.5t-28.5 11.5l-363 201l-362 -201q-16 -6 -28.5 -11.5t-27.5 -5.5q-33 0 -32 43zM864 614q0 -207 54.5 -289.5t171.5 -82.5h278q63 0 108.5 19.5t75 62.5t44 114.5t14.5 175.5v224 q0 94 -12.5 155.5t-41 98t-74.5 51t-114 14.5h-278q-61 0 -103.5 -15.5t-70 -52t-40 -98t-12.5 -153.5v-224z" />
<glyph unicode="&#xd5;" horiz-adv-x="2498" d="M74 0zM74 698q0 152 48 280t136 221t213 145.5t277 52.5h1003q154 0 277.5 -53.5t213 -146.5t137.5 -221t48 -278q0 -147 -49 -275t-138.5 -221t-213 -147.5t-275.5 -54.5h-1003q-150 0 -274 53t-213 147.5t-138 222.5t-49 275zM773 1554v113q0 41 32 51l201 97 q31 10 53 10q20 0 31 -4l317 -90q8 -2 14.5 -2h10.5q6 0 12 1t13 1l202 90q16 10 35 10q31 0 31 -27v-116q0 -37 -33 -50l-201 -94q-14 -8 -27.5 -10t-23.5 -2q-23 0 -33 2l-317 94q-10 2 -25 2q-12 0 -24 -6l-201 -90q-10 -4 -19.5 -7t-17.5 -3q-31 0 -30 30zM864 614 q0 -207 54.5 -289.5t171.5 -82.5h278q63 0 108.5 19.5t75 62.5t44 114.5t14.5 175.5v224q0 94 -12.5 155.5t-41 98t-74.5 51t-114 14.5h-278q-61 0 -103.5 -15.5t-70 -52t-40 -98t-12.5 -153.5v-224z" />
<glyph unicode="&#xd6;" horiz-adv-x="2498" d="M74 0zM74 698q0 152 48 280t136 221t213 145.5t277 52.5h1003q154 0 277.5 -53.5t213 -146.5t137.5 -221t48 -278q0 -147 -49 -275t-138.5 -221t-213 -147.5t-275.5 -54.5h-1003q-150 0 -274 53t-213 147.5t-138 222.5t-49 275zM859 1559v268q0 37 41 37h200q43 0 43 -37 v-268q0 -39 -43 -39h-200q-41 0 -41 39zM864 614q0 -207 54.5 -289.5t171.5 -82.5h278q63 0 108.5 19.5t75 62.5t44 114.5t14.5 175.5v224q0 94 -12.5 155.5t-41 98t-74.5 51t-114 14.5h-278q-61 0 -103.5 -15.5t-70 -52t-40 -98t-12.5 -153.5v-224zM1356 1559v268 q0 37 39 37h201q43 0 43 -37v-268q0 -39 -43 -39h-201q-39 0 -39 39z" />
<glyph unicode="&#xd7;" horiz-adv-x="1529" d="M260 295q0 18 19 41l364 364l-364 365q-18 18 -19 39q0 16 19 39l43 41q18 18 36 18q20 0 39 -18l365 -365l366 367q20 18 39 18q18 0 41 -18l39 -41q18 -18 19 -39q0 -23 -19 -39l-366 -367l366 -366q18 -16 19 -39q0 -23 -19 -39l-39 -41q-25 -20 -41 -20q-14 0 -39 20 l-366 367l-365 -365q-18 -20 -39 -20q-18 0 -36 20l-43 41q-18 18 -19 37z" />
<glyph unicode="&#xd8;" horiz-adv-x="2498" d="M74 698q0 152 48 280t136 221t213 145.5t277 52.5h907l90 114q14 18 26.5 25.5t40.5 7.5h97q18 0 31.5 -8t13.5 -25q0 -16 -15 -36l-67 -86q127 -20 229.5 -80t175 -151t111.5 -207.5t39 -252.5q0 -147 -49 -275t-138.5 -221t-213 -147.5t-275.5 -54.5h-973l-86 -113 q-16 -23 -28.5 -27.5t-38.5 -4.5h-99q-18 0 -31.5 8t-13.5 24q0 14 15 37l77 96q-115 27 -207 89.5t-156.5 151.5t-100 199.5t-35.5 237.5zM864 614q0 -121 19 -200l577 733q-23 6 -44 8t-48 2h-278q-61 0 -103.5 -15.5t-70 -52t-40 -98t-12.5 -153.5v-224zM985 260 q23 -10 48.5 -14t56.5 -4h278q63 0 108.5 19.5t75 62.5t44 114.5t14.5 175.5v224q0 59 -6.5 106t-16.5 84z" />
<glyph unicode="&#xd9;" horiz-adv-x="2433" d="M92 0zM92 643v700q0 53 53 54h766q53 0 54 -54v-700q0 -188 79.5 -294.5t253.5 -106.5h353q176 0 259 106.5t83 294.5v700q0 53 55 54h246q55 0 55 -54v-700q0 -135 -42 -252t-128 -204t-218 -137t-310 -50h-860q-188 0 -321.5 45t-217.5 129t-122 203t-38 266z M1119 1765v109q0 41 34 41q14 0 30.5 -2t33.5 -12l571 -271q37 -16 37 -45v-92q0 -41 -37 -41q-10 0 -20 2t-27 8l-592 264q-31 6 -30 39z" />
<glyph unicode="&#xda;" horiz-adv-x="2433" d="M92 0zM92 643v700q0 53 53 54h766q53 0 54 -54v-700q0 -188 79.5 -294.5t253.5 -106.5h353q176 0 259 106.5t83 294.5v700q0 53 55 54h246q55 0 55 -54v-700q0 -135 -42 -252t-128 -204t-218 -137t-310 -50h-860q-188 0 -321.5 45t-217.5 129t-122 203t-38 266z M1137 1493v92q0 29 36 45l570 271q18 10 33.5 12t29.5 2q35 0 35 -41v-109q0 -33 -31 -39l-592 -264q-20 -10 -47 -10q-35 0 -34 41z" />
<glyph unicode="&#xdb;" horiz-adv-x="2433" d="M92 0zM92 643v700q0 53 53 54h766q53 0 54 -54v-700q0 -188 79.5 -294.5t253.5 -106.5h353q176 0 259 106.5t83 294.5v700q0 53 55 54h246q55 0 55 -54v-700q0 -135 -42 -252t-128 -204t-218 -137t-310 -50h-860q-188 0 -321.5 45t-217.5 129t-122 203t-38 266z M1020 1511v119q0 25 24 43l393 223q16 8 33 9q16 0 33 -9l393 -223q23 -16 23 -43v-119q0 -43 -31 -43q-12 0 -26.5 5.5t-28.5 11.5l-363 201l-362 -201q-16 -6 -28.5 -11.5t-27.5 -5.5q-33 0 -32 43z" />
<glyph unicode="&#xdc;" horiz-adv-x="2433" d="M92 0zM92 643v700q0 53 53 54h766q53 0 54 -54v-700q0 -188 79.5 -294.5t253.5 -106.5h353q176 0 259 106.5t83 294.5v700q0 53 55 54h246q55 0 55 -54v-700q0 -135 -42 -252t-128 -204t-218 -137t-310 -50h-860q-188 0 -321.5 45t-217.5 129t-122 203t-38 266z M1100 1559v268q0 37 41 37h200q43 0 43 -37v-268q0 -39 -43 -39h-200q-41 0 -41 39zM1597 1559v268q0 37 39 37h201q43 0 43 -37v-268q0 -39 -43 -39h-201q-39 0 -39 39z" />
<glyph unicode="&#xdd;" horiz-adv-x="2332" d="M6 0zM6 1364q0 16 12.5 24.5t28.5 8.5h825q55 0 93 -41l544 -598l568 600q23 23 41 31t49 8h119q20 0 29 -9.5t9 -21.5q0 -16 -10 -27l-741 -784v-500q0 -55 -55 -55h-705q-53 0 -53 55v488l-735 784q-18 18 -19 37zM1051 1493v92q0 29 36 45l570 271q18 10 33.5 12 t29.5 2q35 0 35 -41v-109q0 -33 -31 -39l-592 -264q-20 -10 -47 -10q-35 0 -34 41z" />
<glyph unicode="&#xde;" horiz-adv-x="2410" d="M74 55v1288q0 53 53 54h702q55 0 56 -54v-219h993q100 0 188 -30.5t153 -90t101.5 -144.5t36.5 -195q0 -109 -41 -192t-112.5 -138t-169 -84t-209.5 -29h-764q-53 0 -53 55v132q0 53 53 53h262q49 0 91 11t73 35.5t49 65.5t18 101q0 106 -67.5 157.5t-163.5 51.5h-438 v-828q0 -55 -56 -55h-702q-53 0 -53 55z" />
<glyph unicode="&#xdf;" horiz-adv-x="4251" d="M59 0zM59 1053q0 68 25 130t75 110t124.5 76t173.5 28h1507q55 0 55 -54v-131q0 -55 -55 -55h-1110l963 -452q80 -37 128 -77t75.5 -84t36.5 -94.5t9 -105.5q0 -68 -24.5 -130t-74.5 -110.5t-124 -76t-172 -27.5h-1546q-53 0 -53 55v131q0 55 53 56h1149l-965 452 q-78 37 -127 77t-76.5 84t-37 93t-9.5 105zM2185 1053q0 68 25 130t75 110t124.5 76t173.5 28h1507q55 0 55 -54v-131q0 -55 -55 -55h-1110l963 -452q80 -37 128 -77t75.5 -84t36.5 -94.5t9 -105.5q0 -68 -24.5 -130t-74.5 -110.5t-124 -76t-172 -27.5h-1546q-53 0 -53 55 v131q0 55 53 56h1149l-965 452q-78 37 -127 77t-76.5 84t-37 93t-9.5 105z" />
<glyph unicode="&#xe0;" d="M6 0zM6 35q0 6 3 15t14 18l1284 1290q39 39 86 39h135q51 0 90 -39l1266 -1286q10 -10 13 -20.5t3 -18.5q0 -33 -47 -33h-858q-66 0 -107 41l-792 821l-627 -620h930q55 0 55 -56v-131q0 -55 -55 -55h-1354q-39 0 -39 35zM1047 1765v109q0 41 34 41q14 0 30.5 -2 t33.5 -12l571 -271q37 -16 37 -45v-92q0 -41 -37 -41q-10 0 -20 2t-27 8l-592 264q-31 6 -30 39z" />
<glyph unicode="&#xe1;" d="M6 0zM6 35q0 6 3 15t14 18l1284 1290q39 39 86 39h135q51 0 90 -39l1266 -1286q10 -10 13 -20.5t3 -18.5q0 -33 -47 -33h-858q-66 0 -107 41l-792 821l-627 -620h930q55 0 55 -56v-131q0 -55 -55 -55h-1354q-39 0 -39 35zM1156 1493v92q0 29 36 45l570 271q18 10 33.5 12 t29.5 2q35 0 35 -41v-109q0 -33 -31 -39l-592 -264q-20 -10 -47 -10q-35 0 -34 41z" />
<glyph unicode="&#xe2;" d="M6 0zM6 35q0 6 3 15t14 18l1284 1290q39 39 86 39h135q51 0 90 -39l1266 -1286q10 -10 13 -20.5t3 -18.5q0 -33 -47 -33h-858q-66 0 -107 41l-792 821l-627 -620h930q55 0 55 -56v-131q0 -55 -55 -55h-1354q-39 0 -39 35zM1004 1511v119q0 25 24 43l393 223q16 8 33 9 q16 0 33 -9l393 -223q23 -16 23 -43v-119q0 -43 -31 -43q-12 0 -26.5 5.5t-28.5 11.5l-363 201l-362 -201q-16 -6 -28.5 -11.5t-27.5 -5.5q-33 0 -32 43z" />
<glyph unicode="&#xe3;" d="M6 0zM6 35q0 6 3 15t14 18l1284 1290q39 39 86 39h135q51 0 90 -39l1266 -1286q10 -10 13 -20.5t3 -18.5q0 -33 -47 -33h-858q-66 0 -107 41l-792 821l-627 -620h930q55 0 55 -56v-131q0 -55 -55 -55h-1354q-39 0 -39 35zM979 1554v113q0 41 32 51l201 97q31 10 53 10 q20 0 31 -4l317 -90q8 -2 14.5 -2h10.5q6 0 12 1t13 1l202 90q16 10 35 10q31 0 31 -27v-116q0 -37 -33 -50l-201 -94q-14 -8 -27.5 -10t-23.5 -2q-23 0 -33 2l-317 94q-10 2 -25 2q-12 0 -24 -6l-201 -90q-10 -4 -19.5 -7t-17.5 -3q-31 0 -30 30z" />
<glyph unicode="&#xe4;" d="M6 0zM6 35q0 6 3 15t14 18l1284 1290q39 39 86 39h135q51 0 90 -39l1266 -1286q10 -10 13 -20.5t3 -18.5q0 -33 -47 -33h-858q-66 0 -107 41l-792 821l-627 -620h930q55 0 55 -56v-131q0 -55 -55 -55h-1354q-39 0 -39 35zM1065 1559v268q0 37 41 37h200q43 0 43 -37v-268 q0 -39 -43 -39h-200q-41 0 -41 39zM1562 1559v268q0 37 39 37h201q43 0 43 -37v-268q0 -39 -43 -39h-201q-39 0 -39 39z" />
<glyph unicode="&#xe5;" d="M6 0zM6 35q0 6 3 15t14 18l1284 1290q39 39 86 39h135q51 0 90 -39l1266 -1286q10 -10 13 -20.5t3 -18.5q0 -33 -47 -33h-858q-66 0 -107 41l-792 821l-627 -620h930q55 0 55 -56v-131q0 -55 -55 -55h-1354q-39 0 -39 35zM1174 1530v387q0 98 79 98h404q78 0 78 -98v-387 q0 -98 -78 -98h-404q-80 0 -79 98zM1315 1569q0 -12 10 -13h256q12 0 12 17v301q0 16 -12 16h-256q-10 0 -10 -14v-307z" />
<glyph unicode="&#xe6;" horiz-adv-x="3819" d="M6 0zM6 35q0 6 3 15t14 18l1284 1290q39 39 86 39h2287q55 0 56 -54v-131q0 -55 -56 -55h-1175v-807q0 -53 27.5 -80.5t93.5 -27.5h1060q55 0 56 -56v-131q0 -55 -56 -55h-1716q-152 0 -209 77t-57 214v866h-256l-909 -915h929q55 0 56 -56v-131q0 -55 -56 -55h-1423 q-39 0 -39 35zM2650 694v133q0 53 55 54h961q53 0 53 -37v-166q0 -37 -53 -37h-961q-55 0 -55 53z" />
<glyph unicode="&#xe7;" horiz-adv-x="2260" d="M74 0zM74 698q0 150 48 278t136 222t212 146.5t275 52.5h1395q55 0 55 -54v-131q0 -55 -55 -55h-915q-68 0 -114 -14.5t-74.5 -51t-41 -98t-12.5 -155.5v-224q0 -104 14.5 -175.5t44 -114.5t74.5 -62.5t109 -19.5h923q53 0 54 -56v-131q0 -55 -54 -55h-1403 q-145 0 -268 52t-213 145.5t-140 221.5t-50 279zM1059 -104q0 31 36 30h213q37 0 37 -30v-23v-23.5t-2 -25.5l-24 -227q-4 -39 -39 -39h-154q-35 0 -41 39l-24 227q-2 12 -2 25.5v23.5v23z" />
<glyph unicode="&#xe8;" horiz-adv-x="2316" d="M74 0zM74 698q0 150 48 278t136 222t212 146.5t275 52.5h1432q55 0 55 -54v-131q0 -55 -55 -55h-952q-68 0 -114 -14.5t-74.5 -51t-41 -98t-12.5 -155.5v-224q0 -104 14.5 -175.5t44 -114.5t74.5 -62.5t109 -19.5h958q55 0 55 -56v-131q0 -55 -55 -55h-1438 q-145 0 -268 52t-213 145.5t-140 221.5t-50 279zM930 1765v109q0 41 34 41q14 0 30.5 -2t33.5 -12l571 -271q37 -16 37 -45v-92q0 -41 -37 -41q-10 0 -20 2t-27 8l-592 264q-31 6 -30 39zM1128 694v133q0 53 56 54h979q53 0 53 -37v-166q0 -37 -53 -37h-979q-55 0 -56 53z " />
<glyph unicode="&#xe9;" horiz-adv-x="2316" d="M74 0zM74 698q0 150 48 278t136 222t212 146.5t275 52.5h1432q55 0 55 -54v-131q0 -55 -55 -55h-952q-68 0 -114 -14.5t-74.5 -51t-41 -98t-12.5 -155.5v-224q0 -104 14.5 -175.5t44 -114.5t74.5 -62.5t109 -19.5h958q55 0 55 -56v-131q0 -55 -55 -55h-1438 q-145 0 -268 52t-213 145.5t-140 221.5t-50 279zM986 1493v92q0 29 36 45l570 271q18 10 33.5 12t29.5 2q35 0 35 -41v-109q0 -33 -31 -39l-592 -264q-20 -10 -47 -10q-35 0 -34 41zM1128 694v133q0 53 56 54h979q53 0 53 -37v-166q0 -37 -53 -37h-979q-55 0 -56 53z" />
<glyph unicode="&#xea;" horiz-adv-x="2316" d="M74 0zM74 698q0 150 48 278t136 222t212 146.5t275 52.5h1432q55 0 55 -54v-131q0 -55 -55 -55h-952q-68 0 -114 -14.5t-74.5 -51t-41 -98t-12.5 -155.5v-224q0 -104 14.5 -175.5t44 -114.5t74.5 -62.5t109 -19.5h958q55 0 55 -56v-131q0 -55 -55 -55h-1438 q-145 0 -268 52t-213 145.5t-140 221.5t-50 279zM803 1511v119q0 25 24 43l393 223q16 8 33 9q16 0 33 -9l393 -223q23 -16 23 -43v-119q0 -43 -31 -43q-12 0 -26.5 5.5t-28.5 11.5l-363 201l-362 -201q-16 -6 -28.5 -11.5t-27.5 -5.5q-33 0 -32 43zM1128 694v133 q0 53 56 54h979q53 0 53 -37v-166q0 -37 -53 -37h-979q-55 0 -56 53z" />
<glyph unicode="&#xeb;" horiz-adv-x="2316" d="M74 0zM74 698q0 150 48 278t136 222t212 146.5t275 52.5h1432q55 0 55 -54v-131q0 -55 -55 -55h-952q-68 0 -114 -14.5t-74.5 -51t-41 -98t-12.5 -155.5v-224q0 -104 14.5 -175.5t44 -114.5t74.5 -62.5t109 -19.5h958q55 0 55 -56v-131q0 -55 -55 -55h-1438 q-145 0 -268 52t-213 145.5t-140 221.5t-50 279zM893 1559v268q0 37 41 37h200q43 0 43 -37v-268q0 -39 -43 -39h-200q-41 0 -41 39zM1128 694v133q0 53 56 54h979q53 0 53 -37v-166q0 -37 -53 -37h-979q-55 0 -56 53zM1390 1559v268q0 37 39 37h201q43 0 43 -37v-268 q0 -39 -43 -39h-201q-39 0 -39 39z" />
<glyph unicode="&#xec;" horiz-adv-x="1050" d="M117 0zM117 1765v109q0 41 34 41q14 0 30.5 -2t33.5 -12l571 -271q37 -16 37 -45v-92q0 -41 -37 -41q-10 0 -20 2t-27 8l-592 264q-31 6 -30 39zM119 55v1288q0 53 53 54h707q53 0 53 -54v-1288q0 -55 -53 -55h-707q-53 0 -53 55z" />
<glyph unicode="&#xed;" horiz-adv-x="1050" d="M119 0zM119 55v1288q0 53 53 54h707q53 0 53 -54v-1288q0 -55 -53 -55h-707q-53 0 -53 55zM228 1493v92q0 29 36 45l570 271q18 10 33.5 12t29.5 2q35 0 35 -41v-109q0 -33 -31 -39l-592 -264q-20 -10 -47 -10q-35 0 -34 41z" />
<glyph unicode="&#xee;" horiz-adv-x="1050" d="M78 0zM78 1511v119q0 25 24 43l393 223q16 8 33 9q16 0 33 -9l393 -223q23 -16 23 -43v-119q0 -43 -31 -43q-12 0 -26.5 5.5t-28.5 11.5l-363 201l-362 -201q-16 -6 -28.5 -11.5t-27.5 -5.5q-33 0 -32 43zM119 55v1288q0 53 53 54h707q53 0 53 -54v-1288q0 -55 -53 -55 h-707q-53 0 -53 55z" />
<glyph unicode="&#xef;" horiz-adv-x="1050" d="M119 0zM119 55v1288q0 53 53 54h707q53 0 53 -54v-1288q0 -55 -53 -55h-707q-53 0 -53 55zM134 1559v268q0 37 41 37h200q43 0 43 -37v-268q0 -39 -43 -39h-200q-41 0 -41 39zM631 1559v268q0 37 39 37h201q43 0 43 -37v-268q0 -39 -43 -39h-201q-39 0 -39 39z" />
<glyph unicode="&#xf0;" horiz-adv-x="2660" d="M0 0zM0 694v133q0 53 55 54h121v462q0 53 55 54h1647q152 0 275.5 -53.5t212 -146.5t136.5 -221t48 -278q0 -152 -50.5 -279.5t-140.5 -221t-213 -145.5t-268 -52h-1647q-55 0 -55 55v586h-121q-55 0 -55 53zM989 242h414q61 0 106 19.5t75 63.5t43 114.5t13 174.5v224 q0 94 -12 155.5t-40.5 98t-74 51t-110.5 14.5h-414v-276h389q55 0 56 -37v-166q0 -37 -56 -37h-389v-399z" />
<glyph unicode="&#xf1;" horiz-adv-x="2625" d="M100 0zM100 55v1288q0 53 56 54h252q33 0 59.5 -1t51 -5.5t50 -12.5t58.5 -20l1523 -588v573q0 53 56 54h264q55 0 55 -54v-1288q0 -55 -55 -55h-141q-61 0 -107.5 8t-114.5 33l-1632 610v-596q0 -55 -55 -55h-264q-55 0 -56 55zM910 1554v113q0 41 32 51l201 97 q31 10 53 10q20 0 31 -4l317 -90q8 -2 14.5 -2h10.5q6 0 12 1t13 1l202 90q16 10 35 10q31 0 31 -27v-116q0 -37 -33 -50l-201 -94q-14 -8 -27.5 -10t-23.5 -2q-23 0 -33 2l-317 94q-10 2 -25 2q-12 0 -24 -6l-201 -90q-10 -4 -19.5 -7t-17.5 -3q-31 0 -30 30z" />
<glyph unicode="&#xf2;" horiz-adv-x="2498" d="M74 0zM74 698q0 152 48 280t136 221t213 145.5t277 52.5h1003q154 0 277.5 -53.5t213 -146.5t137.5 -221t48 -278q0 -147 -49 -275t-138.5 -221t-213 -147.5t-275.5 -54.5h-1003q-150 0 -274 53t-213 147.5t-138 222.5t-49 275zM840 1765v109q0 41 34 41q14 0 30.5 -2 t33.5 -12l571 -271q37 -16 37 -45v-92q0 -41 -37 -41q-10 0 -20 2t-27 8l-592 264q-31 6 -30 39zM864 614q0 -207 54.5 -289.5t171.5 -82.5h278q63 0 108.5 19.5t75 62.5t44 114.5t14.5 175.5v224q0 94 -12.5 155.5t-41 98t-74.5 51t-114 14.5h-278q-61 0 -103.5 -15.5 t-70 -52t-40 -98t-12.5 -153.5v-224z" />
<glyph unicode="&#xf3;" horiz-adv-x="2498" d="M74 0zM74 698q0 152 48 280t136 221t213 145.5t277 52.5h1003q154 0 277.5 -53.5t213 -146.5t137.5 -221t48 -278q0 -147 -49 -275t-138.5 -221t-213 -147.5t-275.5 -54.5h-1003q-150 0 -274 53t-213 147.5t-138 222.5t-49 275zM864 614q0 -207 54.5 -289.5t171.5 -82.5 h278q63 0 108.5 19.5t75 62.5t44 114.5t14.5 175.5v224q0 94 -12.5 155.5t-41 98t-74.5 51t-114 14.5h-278q-61 0 -103.5 -15.5t-70 -52t-40 -98t-12.5 -153.5v-224zM953 1493v92q0 29 36 45l570 271q18 10 33.5 12t29.5 2q35 0 35 -41v-109q0 -33 -31 -39l-592 -264 q-20 -10 -47 -10q-35 0 -34 41z" />
<glyph unicode="&#xf4;" horiz-adv-x="2498" d="M74 0zM74 698q0 152 48 280t136 221t213 145.5t277 52.5h1003q154 0 277.5 -53.5t213 -146.5t137.5 -221t48 -278q0 -147 -49 -275t-138.5 -221t-213 -147.5t-275.5 -54.5h-1003q-150 0 -274 53t-213 147.5t-138 222.5t-49 275zM801 1511v119q0 25 24 43l393 223 q16 8 33 9q16 0 33 -9l393 -223q23 -16 23 -43v-119q0 -43 -31 -43q-12 0 -26.5 5.5t-28.5 11.5l-363 201l-362 -201q-16 -6 -28.5 -11.5t-27.5 -5.5q-33 0 -32 43zM864 614q0 -207 54.5 -289.5t171.5 -82.5h278q63 0 108.5 19.5t75 62.5t44 114.5t14.5 175.5v224 q0 94 -12.5 155.5t-41 98t-74.5 51t-114 14.5h-278q-61 0 -103.5 -15.5t-70 -52t-40 -98t-12.5 -153.5v-224z" />
<glyph unicode="&#xf5;" horiz-adv-x="2498" d="M74 0zM74 698q0 152 48 280t136 221t213 145.5t277 52.5h1003q154 0 277.5 -53.5t213 -146.5t137.5 -221t48 -278q0 -147 -49 -275t-138.5 -221t-213 -147.5t-275.5 -54.5h-1003q-150 0 -274 53t-213 147.5t-138 222.5t-49 275zM773 1554v113q0 41 32 51l201 97 q31 10 53 10q20 0 31 -4l317 -90q8 -2 14.5 -2h10.5q6 0 12 1t13 1l202 90q16 10 35 10q31 0 31 -27v-116q0 -37 -33 -50l-201 -94q-14 -8 -27.5 -10t-23.5 -2q-23 0 -33 2l-317 94q-10 2 -25 2q-12 0 -24 -6l-201 -90q-10 -4 -19.5 -7t-17.5 -3q-31 0 -30 30zM864 614 q0 -207 54.5 -289.5t171.5 -82.5h278q63 0 108.5 19.5t75 62.5t44 114.5t14.5 175.5v224q0 94 -12.5 155.5t-41 98t-74.5 51t-114 14.5h-278q-61 0 -103.5 -15.5t-70 -52t-40 -98t-12.5 -153.5v-224z" />
<glyph unicode="&#xf6;" horiz-adv-x="2498" d="M74 0zM74 698q0 152 48 280t136 221t213 145.5t277 52.5h1003q154 0 277.5 -53.5t213 -146.5t137.5 -221t48 -278q0 -147 -49 -275t-138.5 -221t-213 -147.5t-275.5 -54.5h-1003q-150 0 -274 53t-213 147.5t-138 222.5t-49 275zM859 1559v268q0 37 41 37h200q43 0 43 -37 v-268q0 -39 -43 -39h-200q-41 0 -41 39zM864 614q0 -207 54.5 -289.5t171.5 -82.5h278q63 0 108.5 19.5t75 62.5t44 114.5t14.5 175.5v224q0 94 -12.5 155.5t-41 98t-74.5 51t-114 14.5h-278q-61 0 -103.5 -15.5t-70 -52t-40 -98t-12.5 -153.5v-224zM1356 1559v268 q0 37 39 37h201q43 0 43 -37v-268q0 -39 -43 -39h-201q-39 0 -39 39z" />
<glyph unicode="&#xf7;" horiz-adv-x="1529" d="M109 0zM109 672v57q0 55 55 55h1202q55 0 55 -55v-57q0 -55 -55 -56h-1202q-55 0 -55 56zM510 92v295q0 90 92 90h325q92 0 92 -90v-295q0 -92 -92 -92h-325q-92 0 -92 92zM510 1022v295q0 90 92 90h325q92 0 92 -90v-295q0 -92 -92 -92h-325q-92 0 -92 92z" />
<glyph unicode="&#xf8;" horiz-adv-x="2498" d="M74 0zM74 698q0 152 48 280t136 221t213 145.5t277 52.5h907l90 114q14 18 26.5 25.5t40.5 7.5h97q18 0 31.5 -8t13.5 -25q0 -16 -15 -36l-67 -86q127 -20 229.5 -80t175 -151t111.5 -207.5t39 -252.5q0 -147 -49 -275t-138.5 -221t-213 -147.5t-275.5 -54.5h-973 l-86 -113q-16 -23 -28.5 -27.5t-38.5 -4.5h-99q-18 0 -31.5 8t-13.5 24q0 14 15 37l77 96q-115 27 -207 89.5t-156.5 151.5t-100 199.5t-35.5 237.5zM864 614q0 -121 19 -200l577 733q-23 6 -44 8t-48 2h-278q-61 0 -103.5 -15.5t-70 -52t-40 -98t-12.5 -153.5v-224z M985 260q23 -10 48.5 -14t56.5 -4h278q63 0 108.5 19.5t75 62.5t44 114.5t14.5 175.5v224q0 59 -6.5 106t-16.5 84z" />
<glyph unicode="&#xf9;" horiz-adv-x="2433" d="M92 0zM92 643v700q0 53 53 54h766q53 0 54 -54v-700q0 -188 79.5 -294.5t253.5 -106.5h353q176 0 259 106.5t83 294.5v700q0 53 55 54h246q55 0 55 -54v-700q0 -135 -42 -252t-128 -204t-218 -137t-310 -50h-860q-188 0 -321.5 45t-217.5 129t-122 203t-38 266z M1119 1765v109q0 41 34 41q14 0 30.5 -2t33.5 -12l571 -271q37 -16 37 -45v-92q0 -41 -37 -41q-10 0 -20 2t-27 8l-592 264q-31 6 -30 39z" />
<glyph unicode="&#xfa;" horiz-adv-x="2433" d="M92 0zM92 643v700q0 53 53 54h766q53 0 54 -54v-700q0 -188 79.5 -294.5t253.5 -106.5h353q176 0 259 106.5t83 294.5v700q0 53 55 54h246q55 0 55 -54v-700q0 -135 -42 -252t-128 -204t-218 -137t-310 -50h-860q-188 0 -321.5 45t-217.5 129t-122 203t-38 266z M1137 1493v92q0 29 36 45l570 271q18 10 33.5 12t29.5 2q35 0 35 -41v-109q0 -33 -31 -39l-592 -264q-20 -10 -47 -10q-35 0 -34 41z" />
<glyph unicode="&#xfb;" horiz-adv-x="2433" d="M92 0zM92 643v700q0 53 53 54h766q53 0 54 -54v-700q0 -188 79.5 -294.5t253.5 -106.5h353q176 0 259 106.5t83 294.5v700q0 53 55 54h246q55 0 55 -54v-700q0 -135 -42 -252t-128 -204t-218 -137t-310 -50h-860q-188 0 -321.5 45t-217.5 129t-122 203t-38 266z M1020 1511v119q0 25 24 43l393 223q16 8 33 9q16 0 33 -9l393 -223q23 -16 23 -43v-119q0 -43 -31 -43q-12 0 -26.5 5.5t-28.5 11.5l-363 201l-362 -201q-16 -6 -28.5 -11.5t-27.5 -5.5q-33 0 -32 43z" />
<glyph unicode="&#xfc;" horiz-adv-x="2433" d="M92 0zM92 643v700q0 53 53 54h766q53 0 54 -54v-700q0 -188 79.5 -294.5t253.5 -106.5h353q176 0 259 106.5t83 294.5v700q0 53 55 54h246q55 0 55 -54v-700q0 -135 -42 -252t-128 -204t-218 -137t-310 -50h-860q-188 0 -321.5 45t-217.5 129t-122 203t-38 266z M1100 1559v268q0 37 41 37h200q43 0 43 -37v-268q0 -39 -43 -39h-200q-41 0 -41 39zM1597 1559v268q0 37 39 37h201q43 0 43 -37v-268q0 -39 -43 -39h-201q-39 0 -39 39z" />
<glyph unicode="&#xfd;" horiz-adv-x="2332" d="M6 0zM6 1364q0 16 12.5 24.5t28.5 8.5h825q55 0 93 -41l544 -598l568 600q23 23 41 31t49 8h119q20 0 29 -9.5t9 -21.5q0 -16 -10 -27l-741 -784v-500q0 -55 -55 -55h-705q-53 0 -53 55v488l-735 784q-18 18 -19 37zM1051 1493v92q0 29 36 45l570 271q18 10 33.5 12 t29.5 2q35 0 35 -41v-109q0 -33 -31 -39l-592 -264q-20 -10 -47 -10q-35 0 -34 41z" />
<glyph unicode="&#xfe;" horiz-adv-x="2410" d="M74 0zM74 55v1288q0 53 53 54h702q55 0 56 -54v-219h993q100 0 188 -30.5t153 -90t101.5 -144.5t36.5 -195q0 -109 -41 -192t-112.5 -138t-169 -84t-209.5 -29h-764q-53 0 -53 55v132q0 53 53 53h262q49 0 91 11t73 35.5t49 65.5t18 101q0 106 -67.5 157.5t-163.5 51.5 h-438v-828q0 -55 -56 -55h-702q-53 0 -53 55z" />
<glyph unicode="&#xff;" horiz-adv-x="2332" d="M6 0zM6 1364q0 16 12.5 24.5t28.5 8.5h825q55 0 93 -41l544 -598l568 600q23 23 41 31t49 8h119q20 0 29 -9.5t9 -21.5q0 -16 -10 -27l-741 -784v-500q0 -55 -55 -55h-705q-53 0 -53 55v488l-735 784q-18 18 -19 37zM1008 1559v268q0 37 41 37h200q43 0 43 -37v-268 q0 -39 -43 -39h-200q-41 0 -41 39zM1505 1559v268q0 37 39 37h201q43 0 43 -37v-268q0 -39 -43 -39h-201q-39 0 -39 39z" />
<glyph unicode="&#x152;" horiz-adv-x="3649" d="M74 698q0 152 48 280t136 221t213 145.5t277 52.5h2760q55 0 56 -54v-131q0 -55 -56 -55h-1141v-915h1149q53 0 54 -56v-131q0 -55 -54 -55h-2768q-150 0 -274 54.5t-213 147.5t-138 221t-49 275zM864 614q0 -207 55.5 -289.5t170.5 -82.5h464v915h-464 q-61 0 -103.5 -15.5t-70 -52t-40 -98t-12.5 -153.5v-224zM2515 694v133q0 53 55 54h924q55 0 55 -37v-166q0 -37 -55 -37h-924q-55 0 -55 53z" />
<glyph unicode="&#x153;" horiz-adv-x="3649" d="M74 0zM74 698q0 152 48 280t136 221t213 145.5t277 52.5h2760q55 0 56 -54v-131q0 -55 -56 -55h-1141v-915h1149q53 0 54 -56v-131q0 -55 -54 -55h-2768q-150 0 -274 54.5t-213 147.5t-138 221t-49 275zM864 614q0 -207 55.5 -289.5t170.5 -82.5h464v915h-464 q-61 0 -103.5 -15.5t-70 -52t-40 -98t-12.5 -153.5v-224zM2515 694v133q0 53 55 54h924q55 0 55 -37v-166q0 -37 -55 -37h-924q-55 0 -55 53z" />
<glyph unicode="&#x178;" horiz-adv-x="2332" d="M6 0zM6 1364q0 16 12.5 24.5t28.5 8.5h825q55 0 93 -41l544 -598l568 600q23 23 41 31t49 8h119q20 0 29 -9.5t9 -21.5q0 -16 -10 -27l-741 -784v-500q0 -55 -55 -55h-705q-53 0 -53 55v488l-735 784q-18 18 -19 37zM1008 1559v268q0 37 41 37h200q43 0 43 -37v-268 q0 -39 -43 -39h-200q-41 0 -41 39zM1505 1559v268q0 37 39 37h201q43 0 43 -37v-268q0 -39 -43 -39h-201q-39 0 -39 39z" />
<glyph unicode="&#x2c6;" horiz-adv-x="1116" d="M109 1511v119q0 25 24 43l393 223q16 8 33 9q16 0 33 -9l393 -223q23 -16 23 -43v-119q0 -43 -31 -43q-12 0 -26.5 5.5t-28.5 11.5l-363 201l-362 -201q-16 -6 -28.5 -11.5t-27.5 -5.5q-33 0 -32 43z" />
<glyph unicode="&#x2dc;" horiz-adv-x="1169" d="M109 1554v113q0 41 32 51l201 97q31 10 53 10q20 0 31 -4l317 -90q8 -2 14.5 -2h10.5q6 0 12 1t13 1l202 90q16 10 35 10q31 0 31 -27v-116q0 -37 -33 -50l-201 -94q-14 -8 -27.5 -10t-23.5 -2q-23 0 -33 2l-317 94q-10 2 -25 2q-12 0 -24 -6l-201 -90q-10 -4 -19.5 -7 t-17.5 -3q-31 0 -30 30z" />
<glyph unicode="&#x2000;" horiz-adv-x="1007" />
<glyph unicode="&#x2001;" horiz-adv-x="2015" />
<glyph unicode="&#x2002;" horiz-adv-x="1007" />
<glyph unicode="&#x2003;" horiz-adv-x="2015" />
<glyph unicode="&#x2004;" horiz-adv-x="671" />
<glyph unicode="&#x2005;" horiz-adv-x="503" />
<glyph unicode="&#x2006;" horiz-adv-x="335" />
<glyph unicode="&#x2007;" horiz-adv-x="335" />
<glyph unicode="&#x2008;" horiz-adv-x="251" />
<glyph unicode="&#x2009;" horiz-adv-x="403" />
<glyph unicode="&#x200a;" horiz-adv-x="111" />
<glyph unicode="&#x2010;" horiz-adv-x="692" d="M53 623v131q0 55 56 55h471q55 0 55 -55v-131q0 -55 -55 -56h-471q-55 0 -56 56z" />
<glyph unicode="&#x2011;" horiz-adv-x="692" d="M53 623v131q0 55 56 55h471q55 0 55 -55v-131q0 -55 -55 -56h-471q-55 0 -56 56z" />
<glyph unicode="&#x2012;" horiz-adv-x="692" d="M53 623v131q0 55 56 55h471q55 0 55 -55v-131q0 -55 -55 -56h-471q-55 0 -56 56z" />
<glyph unicode="&#x2013;" horiz-adv-x="1228" d="M53 623v131q0 55 56 55h1007q55 0 55 -55v-131q0 -55 -55 -56h-1007q-55 0 -56 56z" />
<glyph unicode="&#x2014;" horiz-adv-x="1898" d="M53 623v131q0 55 56 55h1679q55 0 55 -55v-131q0 -55 -55 -56h-1679q-55 0 -56 56z" />
<glyph unicode="&#x2018;" horiz-adv-x="618" d="M55 928v55q0 43 7.5 71.5t29.5 69.5l156 291q49 92 141 92h84q90 0 90 -92v-487q0 -92 -90 -92h-328q-90 0 -90 92z" />
<glyph unicode="&#x2019;" horiz-adv-x="618" d="M55 928v487q0 92 90 92h328q90 0 90 -92v-55q0 -43 -7 -71.5t-30 -69.5l-155 -291q-49 -92 -142 -92h-84q-90 0 -90 92z" />
<glyph unicode="&#x201a;" horiz-adv-x="618" d="M55 -102v489q0 90 90 90h328q90 0 90 -90v-57q0 -41 -7 -70t-30 -70l-155 -292q-49 -90 -142 -91h-84q-90 0 -90 91z" />
<glyph unicode="&#x201c;" horiz-adv-x="1228" d="M55 928v55q0 43 7.5 71.5t29.5 69.5l156 291q49 92 141 92h84q90 0 90 -92v-487q0 -92 -90 -92h-328q-90 0 -90 92zM666 928v55q0 43 8 71.5t31 69.5l155 291q49 92 139 92h84q92 0 93 -92v-487q0 -92 -93 -92h-325q-92 0 -92 92z" />
<glyph unicode="&#x201d;" horiz-adv-x="1228" d="M55 928v487q0 92 90 92h328q90 0 90 -92v-55q0 -43 -7 -71.5t-30 -69.5l-155 -291q-49 -92 -142 -92h-84q-90 0 -90 92zM666 928v487q0 92 92 92h325q92 0 93 -92v-55q0 -43 -8.5 -71.5t-30.5 -69.5l-156 -291q-49 -92 -139 -92h-84q-92 0 -92 92z" />
<glyph unicode="&#x201e;" horiz-adv-x="1228" d="M55 -102v489q0 90 90 90h328q90 0 90 -90v-57q0 -41 -7 -70t-30 -70l-155 -292q-49 -90 -142 -91h-84q-90 0 -90 91zM666 -102v489q0 90 92 90h325q92 0 93 -90v-57q0 -41 -8.5 -70t-30.5 -70l-156 -292q-49 -90 -139 -91h-84q-92 0 -92 91z" />
<glyph unicode="&#x2022;" horiz-adv-x="1036" d="M150 694q0 76 28.5 142.5t78.5 117t117.5 79t143.5 28.5t143.5 -28.5t117.5 -79t79 -117t29 -142.5t-29 -143.5t-79 -117.5t-117.5 -78.5t-143.5 -28.5t-143.5 28.5t-117.5 78.5t-78.5 117.5t-28.5 143.5z" />
<glyph unicode="&#x2026;" horiz-adv-x="3639" d="M109 0zM109 92v295q0 90 92 90h325q92 0 92 -90v-295q0 -92 -92 -92h-325q-92 0 -92 92zM1565 92v295q0 90 92 90h325q92 0 92 -90v-295q0 -92 -92 -92h-325q-92 0 -92 92zM3021 92v295q0 90 92 90h325q92 0 92 -90v-295q0 -92 -92 -92h-325q-92 0 -92 92z" />
<glyph unicode="&#x202f;" horiz-adv-x="403" />
<glyph unicode="&#x2039;" horiz-adv-x="589" d="M53 647v78q0 59 43 84l324 186q16 10 31 11q27 0 43 -29l30 -51q4 -10 6 -17.5t2 -13.5q0 -31 -28 -45l-283 -164l283 -164q29 -16 28 -45q0 -6 -2 -13t-6 -18l-30 -51q-16 -29 -43 -28q-14 0 -31 10l-324 186q-43 25 -43 84z" />
<glyph unicode="&#x203a;" horiz-adv-x="589" d="M53 477q0 29 29 45l283 164l-283 164q-29 14 -29 45q0 6 2 13t6 18l31 51q16 29 43 29q14 0 31 -11l323 -186q43 -25 43 -84v-78q0 -59 -43 -84l-323 -186q-16 -10 -31 -10q-27 0 -43 28l-31 51q-4 10 -6 17.5t-2 13.5z" />
<glyph unicode="&#x205f;" horiz-adv-x="503" />
<glyph unicode="&#x20ac;" horiz-adv-x="2324" d="M70 489l6 58q4 29 16 42t45 13h90q-2 23 -3 47.5t-1 48.5q0 27 1 51.5t3 49.5h-108q-29 0 -39 13t-10 42l6 57q4 29 16 42.5t45 13.5h129q35 96 94.5 176t140.5 136t180 87t214 31h1319q37 0 37 -27q0 -12 -6 -27l-62 -131q-25 -55 -78 -55h-731q-109 0 -164 -41 t-69 -149h880q39 0 39 -27q0 -12 -8 -29l-27 -57q-25 -55 -77 -55h-815v-197h725q39 0 38 -27q0 -12 -8 -28l-26 -58q-25 -55 -80 -55h-635q23 -106 77 -149t150 -43h742q53 0 53 -56v-131q0 -55 -53 -55h-1221q-111 0 -210 30.5t-180 88t-142.5 137.5t-96.5 178h-147 q-29 0 -39 13.5t-10 41.5z" />
<glyph unicode="&#x2122;" horiz-adv-x="1662" d="M59 1317v47q0 33 33 33h539q31 0 31 -33v-47q0 -31 -31 -31h-205v-551q0 -31 -33 -30h-63q-31 0 -31 30v551h-207q-33 0 -33 31zM733 735v613q0 49 49 49h105q16 0 29.5 -7.5t17.5 -23.5l213 -510l217 510q14 31 49 31h96q45 0 45 -49v-613q0 -31 -30 -30h-58 q-33 0 -32 30v449l-207 -451q-10 -29 -45 -28h-74q-16 0 -28.5 5t-18.5 21l-209 453v-449q0 -31 -31 -30h-55q-33 0 -33 30z" />
<glyph unicode="&#x25fc;" horiz-adv-x="1392" d="M0 0v1393h1393v-1393h-1393z" />
</font>
</defs>
</svg>
